Корни / Tap Roots (Джордж Маршалл / George Marshall) [1948, США, драма, вестерн, военный, DVDRip] VO (Nastia)

DL-List and Torrent activity
Size:  1.42 GB   |    Registered:  2 years 9 months   |    Completed:  16 times
Seeders:  5   Leechers:  1   Show peers in full details
 
   
 
 

erzsebet.org ®

Longevity:
2 years 9 months
Posts:
47596

[Quote] 

Корни / Tap Roots
Страна: США
Жанр: драма, вестерн, военный
Год выпуска: 1948
Продолжительность: 01:44:26
Перевод: Одноголосый закадровый Nastia
Субтитры: нет
Режиссер: Джордж Маршалл / George Marshall
В ролях: Ван Хефлин, Сьюзен Хэйуорд, Борис Карлофф, Джули Лондон, Уитфилд Коннор, Уорд Бонд, Ричард Лонг, Артур Шилдс, Грифф Барнетт
Описание: Фильм снят по роману Джеймса Хауэлла Стрита. Эта история о семье из Миссисипи, о семье, основатели которой, мужчины и женщины, вырвали свои широкие плантации у дикой природы. К 1860 году, их чудесная Долина стала почти государством в государстве. Эти люди скорее готовы были пожертвовать жизнью, чем признать чью-либо власть, кроме своей собственной.
Доп. информация: Фильм озвучен для: 7букв Вестерн / группа Джесси Джеймса, при участии ВК—группы Душевное кино. Перевод: Serveladkin Текст читает: Nastia.
Отдельная благодарность Alassea за предоставленную русскую звуковую дорожку
Сэмпл: http://multi-up.com/1175461
Качество видео: DVDRip (Исходник DVD-Video)
Формат видео: AVI
Видео: XviD, 688x512, (4:3), 25,000 fps, 1751 Кбит/с, 8 бит
Аудио: Русский (АС3, 2 ch (Front: L R), 48,0 KHz, 192 Kbps)

MediaInfo

Общее
Полное имя : D:\Видеофильмы\В и д е о\Корни (драма, вестерн, военный 1948 год).avi
Формат : AVI
Формат/Информация : Audio Video Interleave
Размер файла : 1,42 Гбайт
Продолжительность : 1 ч. 44 м.
Общий поток : 1952 Кбит/сек
Программа кодирования : VirtualDubMod 1.5.10.2 (build 2540/release)
Библиотека кодирования : VirtualDubMod build 2540/release
Видео
Идентификатор : 0
Формат : MPEG-4 Visual
Профиль формата : Advanced [email protected]
Параметр BVOP формата : 2
Параметр QPel формата : Нет
Параметр GMC формата : Без точки перехода
Параметр матрицы формата : Default (H.263)
Идентификатор кодека : XVID
Идентификатор кодека/Подсказка : XviD
Продолжительность : 1 ч. 44 м.
Битрейт : 1751 Кбит/сек
Ширина : 688 пикселей
Высота : 512 пикселей
Соотношение сторон : 4:3
Частота кадров : 25,000 кадров/сек
Цветовое пространство : YUV
Субдискретизация насыщенности : 4:2:0
Битовая глубина : 8 бит
Тип развёртки : Прогрессивная
Метод сжатия : С потерями
Бит/(Пиксели*Кадры) : 0.199
Размер потока : 1,28 Гбайт (90%)
Библиотека кодирования : XviD 1.2.1 (UTC 2008-12-04)
Аудио
Идентификатор : 1
Формат : AC-3
Формат/Информация : Audio Coding 3
Расширение режима : CM (complete main)
Параметр Endianness формата : Big
Идентификатор кодека : 2000
Продолжительность : 1 ч. 44 м.
Вид битрейта : Постоянный
Битрейт : 192 Кбит/сек
Каналы : 2 канала
Расположение каналов : Front: L R
Частота : 48,0 КГц
Частота кадров : 31,250 кадров/сек (1536 spf)
Метод сжатия : С потерями
Размер потока : 143 Мбайт (10%)
Выравнивание : Разделение по промежуткам
Продолжительность промежутка : 40 мс. (1,00 видеокадр)
Время предзагрузки промежутка : 500 мс.

Скриншот c названием фильма

Скриншоты

If your ratio falls below 0.3, you will not be able to download Torrents! More about the rating.

[erzsebet.pl].t100.torrent
Torrent: Registered   [ 2017-12-02 16:06 ]

Download .torrent

Download

15 KB

Status: checked
Completed: 16 times
Size: 1.42 GB
terms.php

#1

02-Dec-2017 16:06

[Profile]  [PM] 
Display posts:    

You cannot post new topics in this forum
You cannot reply to topics in this forum
You cannot edit your posts in this forum
You cannot delete your posts in this forum
You cannot vote in polls in this forum
You cannot attach files in this forum
You can download files in this forum
User agreement
For copyright holders
Advertise on this site

Скачайте на халяву через торрент на трекере erzsebet.pl

!ATTENTION!
The site does not give electronic versions of products, and is engaged only in a collecting and cataloguing of the references sent and published at a forum by our readers. If you are the legal owner of any submitted material and do not wish that the reference to it was in our catalogue, contact us and we shall immediately remove her. Files for an exchange on tracker are given by users of a site, and the administration does not bear the responsibility for their maintenance. The request to not fill in the files protected by copyrights, and also files of the illegal maintenance!