Реальные пацаны / Сезон: 5 / Серии: 1-36 из 36 (Жанна Кадникова) [2016-2017, комедия, WEBRip 720p]

DL-List and Torrent activity
Size:  18.25 GB   |    Registered:  11 days   |    Completed:  16 times
Seeders:  1  
 
   
 
 

PriХан ®

Longevity:
2 years 7 months
Posts:
33080

[Quote] 

Реальные пацаны- Год выпуска: 2016-2017
Производство: Good Story Media
Жанр: комедия
Продолжительность: ~00:24:00 серия
Субтитры: нет-Режиссёр: Жанна Кадникова-В ролях: Николай Наумов, Зоя Бербер, Антон Богданов, Владимир Селиванов, Станислав Тляшев, Мария Скорницкая, Валентина Мазунина, Марина Федункив, Армен Бежанян, Игорь Ознобихин, Алексей Базанов, Олег Верещагин, Сергей Ершов-Описание: У Коляна закончился условный срок и в связи с этим канал прекращает съемки шоу о нём, но по привычке он продолжает снимать себя сам. Иваныч дал Коляну задание участвовать в выборах депутата городской думы и под руководством опытной пиарщицы он медленно, но верно идёт к цели. Лера устроилась журналистом и, узнав о своих коми-пермяцких корнях, занялась освещением этой древней и богатой культуры. Базанов заводит связь с заключённой Лизой, чем весьма недовольна его мама.
Коляну поручается перевоспитать нового героя шоу Игоря (Гарика) Соловьёва. Попутно подопечный борется за внимание «Линейки», новой преподавательницы МХК. Иваныч выходит из тюрьмы и конфликтует с Коляном из-за территории заброшенного порта.
Заканчивается сезон массовой дракой на церемонии закрытия шоу, после которой Лера получает год условно.
-Реклама: Нет
Версия 16+-
Предыдущие и альтернативные раздачи-Качество: WEBRip 720p
Формат: MKV
Видео кодек: H.264
Аудио кодек: AAC
Видео: MPEG-4 AVC, 1280x720 (16:9), 25.000 fps, ~3 000 kbps, 0.128 bit/pixel
Аудио: 44100 Hz, AAC, 1 ch, 128 kbps-

Доп. информация

Нумерация сезона и серий взята с официального сайта, а именно:
Сезон 1 - 50 серий (1-50)
Сезон 2 - 40 серий (51-90)
Сезон 3 - 32 серии (91-122)
Сезон 4 - 40 серий (123-162)
Сезон 5 - 36 серий (163-198)

MI

General
Unique ID : 75691409679953216225616455710173183411 (0x38F1A29F5241DEAD4DF6BD23AF863DB3)
Complete name : \s05e01(e163).Realnye.pacany.WEBRip.(720p).2016.mkv
Format : Matroska
Format version : Version 4
File size : 520 MiB
Duration : 23 min 32 s
Overall bit rate mode : Variable
Overall bit rate : 3 092 kb/s
Movie name : s05e01(e163).Realnye.pacany.WEBRip.(720p).2016
Encoded date : UTC 2020-06-06 13:25:47
Writing application : mkvmerge v38.0.0 ('The Silent Type') 64-bit
Writing library : libebml v1.3.9 + libmatroska v1.5.2
Video
ID : 1
Format : AVC
Format/Info : Advanced Video Codec
Format profile : [email protected]
Format settings : CABAC / 1 Ref Frames
Format settings, CABAC : Yes
Format settings, Reference fra : 1 frame
Format settings, GOP : M=1, N=50
Codec ID : V_MPEG4/ISO/AVC
Duration : 23 min 32 s
Bit rate mode : Variable
Bit rate : 2 960 kb/s
Maximum bit rate : 3 000 kb/s
Width : 1 280 pixels
Height : 720 pixels
Display aspect ratio : 16:9
Frame rate mode : Constant
Frame rate : 25.000 FPS
Color space : YUV
Chroma subsampling : 4:2:0
Bit depth : 8 bits
Scan type : Progressive
Bits/(Pixel*Frame) : 0.128
Stream size : 498 MiB (96%)
Default : Yes
Forced : No
Audio
ID : 2
Format : AAC LC
Format/Info : Advanced Audio Codec Low Complexity
Codec ID : A_AAC-2
Duration : 23 min 32 s
Bit rate : 128 kb/s
Channel(s) : 1 channel
Channel layout : C
Sampling rate : 44.1 kHz
Frame rate : 43.066 FPS (1024 SPF)
Compression mode : Lossy
Stream size : 21.5 MiB (4%)
Default : Yes
Forced : No

Скриншоты

If your ratio falls below 0.3, you will not be able to download Torrents! More about the rating.

[erzsebet.pl].t1001321.torrent
Torrent: Registered   [ 2020-08-01 13:40 ]

Download .torrent

Download

95 KB

Status: checked
Completed: 16 times
Size: 18.25 GB
terms.php

#1

01-Aug-2020 13:40

[Profile]  [PM] 
Display posts:    

You cannot post new topics in this forum
You cannot reply to topics in this forum
You cannot edit your posts in this forum
You cannot delete your posts in this forum
You cannot vote in polls in this forum
You cannot attach files in this forum
You can download files in this forum
User agreement
For copyright holders
Advertise on this site

Скачайте на халяву через торрент на трекере erzsebet.pl

!ATTENTION!
The site does not give electronic versions of products, and is engaged only in a collecting and cataloguing of the references sent and published at a forum by our readers. If you are the legal owner of any submitted material and do not wish that the reference to it was in our catalogue, contact us and we shall immediately remove her. Files for an exchange on tracker are given by users of a site, and the administration does not bear the responsibility for their maintenance. The request to not fill in the files protected by copyrights, and also files of the illegal maintenance!