Матусалем / Matusalem (Роджер Кантин / Roger Cantin) [1993, Канада, фэнтези, приключения, семейный, WEB-DLRip] VO (С. Ващенко) + Sub Rus, Eng + Original Fra

DL-List and Torrent activity
Size:  1.47 GB   |    Registered:  13 days   |    Completed:  16 times
Seeders:  1  
 
   
 
 

KTR ®

Longevity:
4 months 27 days
Posts:
25323

[Quote] 

Матусалем / Matusalem
Страна: Канада
Жанр: фэнтези, приключения, семейный
Год выпуска: 1993
Продолжительность: 01:48:21
Перевод: Одноголосый закадровый Семён Ващенко
Субтитры: русские, английские
Оригинальная аудиодорожка: французский
Режиссер: Роджер Кантин / Roger Cantin
В ролях: Марк Лабреш, Джессика Баркер, Максим Коллен, Стив Гендрон, Жод Левеиль-Бернар, Мари-Франс Монетт, Габриэль Гаскон, Рэймонд Клотье, Аннетт Гарант

Описание: Убегая от мальчишек, которые намеревались его побить, Оливье встречается с призраком пирата, появляющимся каждые 100 лет в поисках таинственного пергамента. Оливье соглашается ему помочь, но в итоге оказывается захваченным шайкой пиратов. Его друзья обнаруживают в старом заброшенном доме дыру во времени и пространстве и решают спасти Оливье от пиратов капитана Монбара...
Доп. информация: Перевод(субтитры) - problem2ooo и Дмитрий Дулов aka mitro_fan, сведение звука - Diablo, организация озвучания - Minhers76.
Кинопоиск - IMDb
Sample
Качество видео: WEB-DLRip
Формат видео: AVI
Видео: 720x384 (1.88:1), 23.976 fps, XviD build 73 ~1540 kbps avg, 0.23 bit/pixel
Аудио: Russian (AC3, 2 ch, 192 kbps, 16 bits, 48.0 KHz) - VO
Аудио 2: French (AC3, 2 ch, 192 kbps, 16 bits, 48.0 KHz) - оригинал
Формат субтитров: softsub (SRT)

MediaInfo

General
Complete name : J:\Matusalem 1993 WEB-DLRip\Matusalem 1993 WEB-DLRip.avi
Format : AVI
Format/Info : Audio Video Interleave
File size : 1.47 GiB
Duration : 1 h 48 min
Overall bit rate : 1 939 kb/s
Writing application : VirtualDubMod 1.5.10.3 | www.virtualdub-fr.org || (build 2550/release)
Writing library : VirtualDubMod build 2550/release
Video
ID : 0
Format : MPEG-4 Visual
Format profile : Advanced [email protected]
Format settings : BVOP1
Format settings, BVOP : 1
Format settings, QPel : No
Format settings, GMC : No warppoints
Format settings, Matrix : Default (MPEG)
Codec ID : XVID
Codec ID/Hint : XviD
Duration : 1 h 48 min
Bit rate : 1 541 kb/s
Width : 720 pixels
Height : 384 pixels
Display aspect ratio : 1.85:1
Frame rate : 23.976 (24000/1001) FPS
Color space : YUV
Chroma subsampling : 4:2:0
Bit depth : 8 bits
Scan type : Progressive
Compression mode : Lossy
Bits/(Pixel*Frame) : 0.232
Stream size : 1.17 GiB (79%)
Writing library : XviD 73
Audio #1
ID : 1
Format : AC-3
Format/Info : Audio Coding 3
Codec ID : 2000
Duration : 1 h 48 min
Bit rate mode : Constant
Bit rate : 192 kb/s
Channel(s) : 2 channels
Channel positions : Front: L R
Sampling rate : 48.0 kHz
Frame rate : 31.250 FPS (1536 SPF)
Bit depth : 16 bits
Compression mode : Lossy
Stream size : 149 MiB (10%)
Alignment : Split accross interleaves
Interleave, duration : 42 ms (1.00 video frame)
Interleave, preload duratio : 500 ms
Service kind : Complete Main
Audio #2
ID : 2
Format : AC-3
Format/Info : Audio Coding 3
Codec ID : 2000
Duration : 1 h 48 min
Bit rate mode : Constant
Bit rate : 192 kb/s
Channel(s) : 2 channels
Channel positions : Front: L R
Sampling rate : 48.0 kHz
Frame rate : 31.250 FPS (1536 SPF)
Bit depth : 16 bits
Compression mode : Lossy
Stream size : 149 MiB (10%)
Alignment : Split accross interleaves
Interleave, duration : 42 ms (1.00 video frame)
Interleave, preload duratio : 500 ms
Service kind : Complete Main

Скриншоты


If your ratio falls below 0.3, you will not be able to download Torrents! More about the rating.

[erzsebet.pl].t1001546.torrent
Torrent: Registered   [ 2020-08-01 15:22 ]

Download .torrent

Download

15 KB

Status: checked
Completed: 16 times
Size: 1.47 GB
terms.php

#1

01-Aug-2020 15:22

[Profile]  [PM] 
Display posts:    

You cannot post new topics in this forum
You cannot reply to topics in this forum
You cannot edit your posts in this forum
You cannot delete your posts in this forum
You cannot vote in polls in this forum
You cannot attach files in this forum
You can download files in this forum
User agreement
For copyright holders
Advertise on this site

Скачайте на халяву через торрент на трекере erzsebet.pl

!ATTENTION!
The site does not give electronic versions of products, and is engaged only in a collecting and cataloguing of the references sent and published at a forum by our readers. If you are the legal owner of any submitted material and do not wish that the reference to it was in our catalogue, contact us and we shall immediately remove her. Files for an exchange on tracker are given by users of a site, and the administration does not bear the responsibility for their maintenance. The request to not fill in the files protected by copyrights, and also files of the illegal maintenance!