(Blues) [STREAM] Brewer Phillips & Ted Harvey - Good House-Rockin' - 1995, FLAC (tracks), lossless

DL-List and Torrent activity
Size:  410 MB   |    Registered:  12 days   |    Completed:  16 times
Seeders:  1  
 
   
 
 

erzsebet ®

Longevity:
9 years 7 months
Posts:
619051
Location:
Венгрия

[Quote] 

Brewer Phillips & Ted Harvey / Good House-Rockin'
Жанр: Blues
Носитель: STREAM
Страна-производитель диска (релиза): Austria
Год издания: 1995
Издатель (лейбл): Wolf Records
Номер по каталогу: 120.608CD
Аудиокодек: FLAC (*.flac)
Тип рипа: tracks
Продолжительность: 60:33
Источник: собственная покупка по версии Vknish
Наличие сканов в содержимом раздачи: нет
Треклист:
01. In The Evening 3:12
02. Kitchen Sink Boogie 3:19
03. Fanny's Blues 4:12
04. I'm Gonna Find My Baby 4:40
05. Crazy 'Bout You Baby 2:39
06. South Side Blues 2:18
07. No Luck Blues 5:11
08. Highway Blues 2:40
09. Hello Pretty Baby 2:21
10. Ingleside Boogie 2:46
11. Cotton Sack 2:34
12. Mama Talk To Your Daughter 2:19
13. You Don't Have To Go 2:26
14. Boogie Chillen 1:48
15. Sweet Home Chicago 5:03
16. That's All Right 4:02
17. Kansas City 3:32
18. Kitchen Sink Boogie 2:39
19. Lunch Bucket Blues 1:33

Лог проверки качества

-----------------------
DON'T MODIFY THIS FILE
-----------------------
PERFORMER: auCDtect Task Manager, ver. 1.6.0 RC1 build 1.6.0.1
Copyright (c) 2008-2010 y-soft. All rights reserved
http://y-soft.org
ANALYZER: auCDtect: CD records authenticity detector, version 0.8.2
Copyright (c) 2004 Oleg Berngardt. All rights reserved.
Copyright (c) 2004 Alexander Djourik. All rights reserved.
FILE: 19. Lunch Bucket Blues.flac
Size: 12407769 Hash: 7D5F71CDA6672B3091300131FC610A60 Accuracy: -m0
Conclusion: CDDA 100%
Signature: 1CCC416FDE959A1261F7424A65A85EFB532FFF06
FILE: 18. Kitchen Sink Boogie - Take 2.flac
Size: 21332210 Hash: B91CC5D7F84784D17630A173A471584B Accuracy: -m0
Conclusion: CDDA 100%
Signature: 210E2051F21A7184E4EC1D7EACAE9CBD95E3EE2C
FILE: 17. Kansas City.flac
Size: 25200840 Hash: 0AEACBAAC8F0587B37A30897853A4C71 Accuracy: -m0
Conclusion: CDDA 100%
Signature: 45391FD06E6CD21F221C4CC2DC03E8AE548470D2
FILE: 16. That's All Right.flac
Size: 27575947 Hash: 576040C9240BB7F96DB0AFC190361481 Accuracy: -m0
Conclusion: CDDA 100%
Signature: F46673011A2025D2B5EBB382F3B659A4DCFBD01A
FILE: 15. Sweet Home Chicago.flac
Size: 35813883 Hash: 92AA4B7D05B59F3F84CC90E2403F75FE Accuracy: -m0
Conclusion: CDDA 100%
Signature: CC56FA1835EF616572726C23E3AD36A2CA108DEF
FILE: 14. Boogie Chillen.flac
Size: 12316696 Hash: 9A96ED41B89627D717AE53B95B9B9A88 Accuracy: -m0
Conclusion: CDDA 100%
Signature: BAA7ED5FF38A1D955FEBD828E8DE689D441F5F43
FILE: 13. You Don't Have To Go.flac
Size: 16780316 Hash: DED5E8E2BB99839493009E59FDBC0A21 Accuracy: -m0
Conclusion: CDDA 100%
Signature: 955580C8ABB8B3843A49927C70B0E27E5146DD1C
FILE: 12. Mama Talk To Your Daughter.flac
Size: 16235187 Hash: C671F7AF3B30D4872CC64CAA44DD7711 Accuracy: -m0
Conclusion: CDDA 100%
Signature: ADC9DCCED30C890751B319BCD5D8C5AFE86203C4
FILE: 11. Cotton Sack.flac
Size: 19214156 Hash: ADAC6037D94836606CC8547D94CE4DAD Accuracy: -m0
Conclusion: CDDA 100%
Signature: 8E2A67C86F9030BC8288E26A9D62A8C11A40D50D
FILE: 10. Ingleside Boogie.flac
Size: 19964011 Hash: F940F2E1CFBBD6D365859FB44D47FD04 Accuracy: -m0
Conclusion: CDDA 100%
Signature: 214686B067135687CBDA91966C43D7E22F334FAD
FILE: 09. Hello Pretty Baby.flac
Size: 17972331 Hash: 54B3DC4ADF7932CA609F5149371EFC42 Accuracy: -m0
Conclusion: CDDA 100%
Signature: 7D5B1465C70678001407F7FE534258065D7275A6
FILE: 08. Highway Blues.flac
Size: 19625412 Hash: BE2DC8260EF3C0F6E10FC13CEA445F99 Accuracy: -m0
Conclusion: CDDA 100%
Signature: E898AF341641A2D2681C91DE82F36455E1F08777
FILE: 07. No Luck Blues.flac
Size: 37409219 Hash: 205AB2245B3F01B1D1902DB8033C876B Accuracy: -m0
Conclusion: CDDA 100%
Signature: BE67E38BC3D57C7B1FA73FF5096CEE1DF14A20F0
FILE: 06. South Side Blues.flac
Size: 16654248 Hash: 8AD1FEDC9C9A89EB5ACDA4CD75992552 Accuracy: -m0
Conclusion: CDDA 99%
Signature: C3CCF48CDBAF62952958EA61BEF9F161A78A0DB0
FILE: 05. Crazy 'Bout You Baby.flac
Size: 19179112 Hash: 41AA93577CCC8309384B092246129CE8 Accuracy: -m0
Conclusion: CDDA 100%
Signature: 452361DA3790200970B7CFA3A62C6EE393D5EF54
FILE: 04. I'm Gonna Find My Baby.flac
Size: 35552346 Hash: 3115EB75AF9ED2D21A586E026800A64F Accuracy: -m0
Conclusion: CDDA 100%
Signature: 1D9FA69050439BEAA894FE63F6766AFD1D6C30EA
FILE: 03. Fanny's Blues.flac
Size: 28676986 Hash: 0B99B2CD56DA6B735A5675C9DE23DB35 Accuracy: -m0
Conclusion: CDDA 100%
Signature: C48A51E6F316965483E6F6FF4121C73D4FD341EB
FILE: 02. Kitchen Sink Boogie - Take 1.flac
Size: 24702798 Hash: DE3B1ABAFBF6EA1CA1BD76624FF63B21 Accuracy: -m0
Conclusion: CDDA 100%
Signature: 86D06A0FB99A431A15526D53AF4548A216B2FD07
FILE: 01. In The Evening.flac
Size: 23085523 Hash: E1131661BCB65F2CBDBC0AF14DF53731 Accuracy: -m0
Conclusion: CDDA 100%
Signature: 25BED8A348721775C4A42DCAB7ADC62193050D34

DR9

foobar2000 1.3.17 / Dynamic Range Meter 1.1.1
log date: 2020-08-01 17:23:07
--------------------------------------------------------------------------------
Analyzed: Brewer Phillips / Good Houserockin' (1-13)
J. B. Lenoir / Good Houserockin' (14)
Jimmy Reed / Good Houserockin' (15)
Jimmy Rogers / Good Houserockin' (16)
John Lee Hooker / Good Houserockin' (17)
Little Walter / Good Houserockin' (18)
Robert Johnson / Good Houserockin' (19)
--------------------------------------------------------------------------------
DR Peak RMS Duration Track
--------------------------------------------------------------------------------
DR9 -0.92 dB -11.24 dB 3:16 01-In The Evening
DR9 -0.22 dB -10.22 dB 3:22 02-Kitchen Sink Boogie - Take 1
DR11 -0.52 dB -13.77 dB 4:15 03-Fanny's Blues
DR9 -0.35 dB -11.03 dB 4:44 04-I'm Gonna Find My Baby
DR9 -0.59 dB -11.83 dB 2:22 06-South Side Blues
DR10 -0.46 dB -12.07 dB 5:15 07-No Luck Blues
DR9 -0.73 dB -11.20 dB 2:43 08-Highway Blues
DR9 -0.36 dB -11.64 dB 2:24 09-Hello Pretty Baby
DR9 -0.72 dB -10.61 dB 2:49 10-Ingleside Boogie
DR9 -0.04 dB -10.28 dB 2:37 11-Cotton Sack
DR7 -1.18 dB -9.90 dB 3:35 17-Kansas City
DR9 -0.10 dB -9.97 dB 2:42 18-Kitchen Sink Boogie - Take 2
DR9 -1.18 dB -11.17 dB 1:34 19-Lunch Bucket Blues
DR8 -1.55 dB -10.97 dB 2:23 12-Mama Talk To Your Daughter
DR8 -1.61 dB -11.15 dB 2:30 13-You Don't Have To Go
DR8 -1.41 dB -11.46 dB 4:05 16-That's All Right
DR9 -1.50 dB -13.16 dB 1:52 14-Boogie Chillen
DR10 0.00 dB -11.69 dB 2:42 05-Crazy 'Bout You Baby
DR8 -1.35 dB -11.44 dB 5:07 15-Sweet Home Chicago
--------------------------------------------------------------------------------
Number of tracks: 19
Official DR value: DR9
Samplerate: 44100 Hz
Channels: 2
Bits per sample: 16
Bitrate: 932 kbps
Codec: FLAC
================================================================================
======================================================
===========================================
Каталог "Wolf Records International"
-------------------------------
VA - Chicago Blues Session - Wolf Records - 83 of 85 CDs (incomplete)

If your ratio falls below 0.3, you will not be able to download Torrents! More about the rating.

[erzsebet.pl].t1001548.torrent
Torrent: Registered   [ 2020-08-01 15:22 ]

Download .torrent

Download

18 KB

Status: checked
Completed: 16 times
Size: 410 MB
terms.php

#1

01-Aug-2020 15:21

[Profile]  [PM] 
Display posts:    

You cannot post new topics in this forum
You cannot reply to topics in this forum
You cannot edit your posts in this forum
You cannot delete your posts in this forum
You cannot vote in polls in this forum
You cannot attach files in this forum
You can download files in this forum
User agreement
For copyright holders
Advertise on this site

Скачайте на халяву через торрент на трекере erzsebet.pl

!ATTENTION!
The site does not give electronic versions of products, and is engaged only in a collecting and cataloguing of the references sent and published at a forum by our readers. If you are the legal owner of any submitted material and do not wish that the reference to it was in our catalogue, contact us and we shall immediately remove her. Files for an exchange on tracker are given by users of a site, and the administration does not bear the responsibility for their maintenance. The request to not fill in the files protected by copyrights, and also files of the illegal maintenance!