Monster Energy NASCAR Cup Series 2019. Этап 27. South Point 400 (Las Vegas). Weekend On NBC [12.09.2019-15.09.2019, Автоспорт, IPTV 720P60fps, Англ]

DL-List and Torrent activity
Size:  14.14 GB   |    Registered:  7 days   |    Completed:  16 times
Seeders:  1  
 
   
 
 

erzsebet ®

Longevity:
9 years 7 months
Posts:
527512
Location:
Венгрия

[Quote] 

Monster Energy NASCAR Cup Series 2019. Этап 27. South Point 400. Weekend On NBC
Вид спорта: Автоспорт
Описание: 27 этап Monster Energy NASCAR Cup Series 2019 на трассе Las Vegas Motor Speedway.
Автор рипа/записи: Ales
Качество: IPTV
Формат видео: MKV
Видео: H264, 1280x720P, 60 кадр/c, 4 000 kb/s
Аудио: AAC 2.0, 48 KHz, 128 kb/s
Язык комментариев: Английский

Burnouts On The Boulevard

Дата/Год выпуска: 12.09.2019

Продолжительность

0:47:44

Скриншоты

MediaInfo

General
Unique ID : 204199978398881900120321518700745849812 (0x999F7C3CE4C62646F0EEDE4D6CF9FBD4)
Complete name : M:\NASCAR2019\Monster.Energy.NASCAR.Cup.Series.2019.R33.First.Data.500.Weekend.On.NBC.720P\01.Monster.Energy.NASCAR.Cup.Series.2019.R33.First.Data.500.Dale.Jr.Download.NBCSN.720P.mkv
Format : Matroska
Format version : Version 4
File size : 1.61 GiB
Duration : 44 min 39 s
Overall bit rate : 5 147 kb/s
Encoded date : UTC 2019-10-28 21:08:11
Writing application : mkvmerge v36.0.0 ('Is That Jazz?') 64-bit
Writing library : libebml v1.3.9 + libmatroska v1.5.2
Video
ID : 1
Format : AVC
Format/Info : Advanced Video Codec
Format profile : [email protected]
Format settings : CABAC / 4 Ref Frames
Format settings, CABAC : Yes
Format settings, Reference frames : 4 frames
Codec ID : V_MPEG4/ISO/AVC
Duration : 44 min 39 s
Bit rate : 5 000 kb/s
Width : 1 280 pixels
Height : 720 pixels
Display aspect ratio : 16:9
Frame rate mode : Constant
Frame rate : 59.940 (60000/1001) FPS
Color space : YUV
Chroma subsampling : 4:2:0
Bit depth : 8 bits
Scan type : Progressive
Bits/(Pixel*Frame) : 0.091
Stream size : 1.56 GiB (97%)
Writing library : x264 core 157 r2935 545de2f
Encoding settings : cabac=1 / ref=3 / deblock=1:0:0 / analyse=0x3:0x113 / me=hex / subme=7 / psy=1 / psy_rd=1.00:0.00 / mixed_ref=1 / me_range=16 / chroma_me=1 / trellis=1 / 8x8dct=1 / cqm=0 / deadzone=21,11 / fast_pskip=1 / chroma_qp_offset=-2 / threads=22 / lookahead_threads=3 / sliced_threads=0 / nr=0 / decimate=1 / interlaced=0 / bluray_compat=0 / constrained_intra=0 / bframes=3 / b_pyramid=2 / b_adapt=1 / b_bias=0 / direct=1 / weightb=1 / open_gop=0 / weightp=2 / keyint=250 / keyint_min=25 / scenecut=40 / intra_refresh=0 / rc_lookahead=40 / rc=abr / mbtree=1 / bitrate=5000 / ratetol=1.0 / qcomp=0.60 / qpmin=0 / qpmax=69 / qpstep=4 / ip_ratio=1.40 / aq=1:1.00
Default : Yes
Forced : No
Audio
ID : 2
Format : AAC LC
Format/Info : Advanced Audio Codec Low Complexity
Codec ID : A_AAC-2
Duration : 44 min 39 s
Bit rate : 132 kb/s
Channel(s) : 2 channels
Channel layout : L R
Sampling rate : 48.0 kHz
Frame rate : 46.875 FPS (1024 SPF)
Compression mode : Lossy
Delay relative to video : -21 ms
Stream size : 41.6 MiB (3%)
Language : English
Default : Yes
Forced : No

Практика

Дата/Год выпуска: 13.09.2019

Продолжительность

0:43:56

Скриншоты

MediaInfo

General
Unique ID : 200757029088274506868275139452989310408 (0x970865BB230CE6D0F77747FED86F85C8)
Complete name : M:\NASCAR2019\Monster.Energy.NASCAR.Cup.Series.2019.R33.First.Data.500.Weekend.On.NBC.720P\02.Monster.Energy.NASCAR.Cup.Series.2019.R33.First.Data.500.Practice.CNBC.720P.mkv
Format : Matroska
Format version : Version 4
File size : 1.38 GiB
Duration : 43 min 59 s
Overall bit rate : 4 497 kb/s
Encoded date : UTC 2019-10-28 20:44:35
Writing application : mkvmerge v36.0.0 ('Is That Jazz?') 64-bit
Writing library : libebml v1.3.9 + libmatroska v1.5.2
Video
ID : 1
Format : AVC
Format/Info : Advanced Video Codec
Format profile : [email protected]
Format settings : CABAC / 4 Ref Frames
Format settings, CABAC : Yes
Format settings, Reference frames : 4 frames
Codec ID : V_MPEG4/ISO/AVC
Duration : 43 min 58 s
Bit rate mode : Constant
Bit rate : 4 372 kb/s
Width : 1 280 pixels
Height : 720 pixels
Display aspect ratio : 16:9
Frame rate mode : Constant
Frame rate : 59.940 (60000/1001) FPS
Color space : YUV
Chroma subsampling : 4:2:0
Bit depth : 8 bits
Scan type : Progressive
Bits/(Pixel*Frame) : 0.079
Stream size : 1.34 GiB (97%)
Default : Yes
Forced : No
Audio
ID : 2
Format : AAC LC
Format/Info : Advanced Audio Codec Low Complexity
Codec ID : A_AAC-2
Duration : 43 min 59 s
Bit rate : 125 kb/s
Channel(s) : 2 channels
Channel layout : L R
Sampling rate : 48.0 kHz
Frame rate : 46.875 FPS (1024 SPF)
Compression mode : Lossy
Delay relative to video : -17 ms
Stream size : 39.5 MiB (3%)
Language : English
Default : Yes
Forced : No

Финальная практика

Дата/Год выпуска: 13.09.2019

Продолжительность

0:44:04

Скриншоты

MediaInfo

General
Unique ID : 170835928144015473793276297197858047788 (0x8085CD8EB827BD687FB5C7853427C72C)
Complete name : M:\NASCAR2019\Monster.Energy.NASCAR.Cup.Series.2019.R33.First.Data.500.Weekend.On.NBC.720P\03.Monster.Energy.NASCAR.Cup.Series.2019.R33.First.Data.500.Final.Practice.NBC.Sports.App.720P.mkv
Format : Matroska
Format version : Version 4
File size : 1.68 GiB
Duration : 46 min 52 s
Overall bit rate : 5 132 kb/s
Encoded date : UTC 2019-10-28 20:45:29
Writing application : mkvmerge v36.0.0 ('Is That Jazz?') 64-bit
Writing library : libebml v1.3.9 + libmatroska v1.5.2
Video
ID : 1
Format : AVC
Format/Info : Advanced Video Codec
Format profile : [email protected]
Format settings : CABAC / 4 Ref Frames
Format settings, CABAC : Yes
Format settings, Reference frames : 4 frames
Codec ID : V_MPEG4/ISO/AVC
Duration : 46 min 52 s
Bit rate : 5 000 kb/s
Width : 1 280 pixels
Height : 720 pixels
Display aspect ratio : 16:9
Frame rate mode : Constant
Frame rate : 59.940 (60000/1001) FPS
Color space : YUV
Chroma subsampling : 4:2:0
Bit depth : 8 bits
Scan type : Progressive
Bits/(Pixel*Frame) : 0.091
Stream size : 1.64 GiB (97%)
Writing library : x264 core 157 r2935 545de2f
Encoding settings : cabac=1 / ref=3 / deblock=1:0:0 / analyse=0x3:0x113 / me=hex / subme=7 / psy=1 / psy_rd=1.00:0.00 / mixed_ref=1 / me_range=16 / chroma_me=1 / trellis=1 / 8x8dct=1 / cqm=0 / deadzone=21,11 / fast_pskip=1 / chroma_qp_offset=-2 / threads=22 / lookahead_threads=3 / sliced_threads=0 / nr=0 / decimate=1 / interlaced=0 / bluray_compat=0 / constrained_intra=0 / bframes=3 / b_pyramid=2 / b_adapt=1 / b_bias=0 / direct=1 / weightb=1 / open_gop=0 / weightp=2 / keyint=250 / keyint_min=25 / scenecut=40 / intra_refresh=0 / rc_lookahead=40 / rc=abr / mbtree=1 / bitrate=5000 / ratetol=1.0 / qcomp=0.60 / qpmin=0 / qpmax=69 / qpstep=4 / ip_ratio=1.40 / aq=1:1.00
Default : Yes
Forced : No
Audio
ID : 2
Format : AAC LC
Format/Info : Advanced Audio Codec Low Complexity
Codec ID : A_AAC-2
Duration : 46 min 52 s
Bit rate : 129 kb/s
Channel(s) : 2 channels
Channel layout : L R
Sampling rate : 48.0 kHz
Frame rate : 46.875 FPS (1024 SPF)
Compression mode : Lossy
Delay relative to video : -21 ms
Stream size : 43.2 MiB (3%)
Language : English
Default : Yes
Forced : No

Квалификация

Дата/Год выпуска: 14.09.2019

Продолжительность

0:43:39

Скриншоты

MediaInfo

General
Unique ID : 252325451563902162779054192682055872587 (0xBDD41D421893E7E96344D23287E9B04B)
Complete name : M:\NASCAR2019\Monster.Energy.NASCAR.Cup.Series.2019.R33.First.Data.500.Weekend.On.NBC.720P\04.Monster.Energy.NASCAR.Cup.Series.2019.R33.First.Data.500.Qualifying.NBCSN.720P.mkv
Format : Matroska
Format version : Version 4
File size : 1.38 GiB
Duration : 44 min 3 s
Overall bit rate : 4 499 kb/s
Encoded date : UTC 2019-10-28 20:46:16
Writing application : mkvmerge v36.0.0 ('Is That Jazz?') 64-bit
Writing library : libebml v1.3.9 + libmatroska v1.5.2
Video
ID : 1
Format : AVC
Format/Info : Advanced Video Codec
Format profile : [email protected]
Format settings : CABAC / 4 Ref Frames
Format settings, CABAC : Yes
Format settings, Reference frames : 4 frames
Codec ID : V_MPEG4/ISO/AVC
Duration : 44 min 3 s
Bit rate mode : Constant
Bit rate : 4 372 kb/s
Width : 1 280 pixels
Height : 720 pixels
Display aspect ratio : 16:9
Frame rate mode : Constant
Frame rate : 59.940 (60000/1001) FPS
Color space : YUV
Chroma subsampling : 4:2:0
Bit depth : 8 bits
Scan type : Progressive
Bits/(Pixel*Frame) : 0.079
Stream size : 1.34 GiB (97%)
Default : Yes
Forced : No
Audio
ID : 2
Format : AAC LC
Format/Info : Advanced Audio Codec Low Complexity
Codec ID : A_AAC-2
Duration : 44 min 3 s
Bit rate : 125 kb/s
Channel(s) : 2 channels
Channel layout : L R
Sampling rate : 48.0 kHz
Frame rate : 46.875 FPS (1024 SPF)
Compression mode : Lossy
Delay relative to video : -19 ms
Stream size : 39.5 MiB (3%)
Language : English
Default : Yes
Forced : No

Гонка

Дата/Год выпуска: 15.09.2019

Продолжительность

4:55:10

Скриншоты

MediaInfo

General
Unique ID : 271400252992509243657451497080974685160 (0xCC2DC9940BCE7A7C1ACD14B9FF2333E8)
Complete name : M:\NASCAR2019\Monster.Energy.NASCAR.Cup.Series.2019.R33.First.Data.500.Weekend.On.NBC.720P\05.Monster.Energy.NASCAR.Cup.Series.2019.R33.First.Data.500.Race.NBCSN.720P.mkv
Format : Matroska
Format version : Version 4
File size : 10.5 GiB
Duration : 5 h 31 min
Overall bit rate : 4 550 kb/s
Encoded date : UTC 2019-10-28 20:46:50
Writing application : mkvmerge v36.0.0 ('Is That Jazz?') 64-bit
Writing library : libebml v1.3.9 + libmatroska v1.5.2
Video
ID : 1
Format : AVC
Format/Info : Advanced Video Codec
Format profile : [email protected]
Format settings : CABAC / 4 Ref Frames
Format settings, CABAC : Yes
Format settings, Reference frames : 4 frames
Codec ID : V_MPEG4/ISO/AVC
Duration : 5 h 31 min
Bit rate : 4 420 kb/s
Nominal bit rate : 5 000 kb/s
Width : 1 280 pixels
Height : 720 pixels
Display aspect ratio : 16:9
Frame rate mode : Constant
Frame rate : 59.940 (59940/1000) FPS
Color space : YUV
Chroma subsampling : 4:2:0
Bit depth : 8 bits
Scan type : Progressive
Bits/(Pixel*Frame) : 0.080
Stream size : 10.2 GiB (97%)
Writing library : x264 core 157 r2935 545de2f
Encoding settings : cabac=1 / ref=3 / deblock=1:0:0 / analyse=0x3:0x113 / me=hex / subme=7 / psy=1 / psy_rd=1.00:0.00 / mixed_ref=1 / me_range=16 / chroma_me=1 / trellis=1 / 8x8dct=1 / cqm=0 / deadzone=21,11 / fast_pskip=1 / chroma_qp_offset=-2 / threads=22 / lookahead_threads=3 / sliced_threads=0 / nr=0 / decimate=1 / interlaced=0 / bluray_compat=0 / constrained_intra=0 / bframes=3 / b_pyramid=2 / b_adapt=1 / b_bias=0 / direct=1 / weightb=1 / open_gop=0 / weightp=2 / keyint=250 / keyint_min=25 / scenecut=40 / intra_refresh=0 / rc_lookahead=40 / rc=abr / mbtree=1 / bitrate=5000 / ratetol=1.0 / qcomp=0.60 / qpmin=0 / qpmax=69 / qpstep=4 / ip_ratio=1.40 / aq=1:1.00
Default : Yes
Forced : No
Audio
ID : 2
Format : AAC LC
Format/Info : Advanced Audio Codec Low Complexity
Codec ID : A_AAC-2
Duration : 5 h 31 min
Bit rate : 126 kb/s
Channel(s) : 2 channels
Channel layout : L R
Sampling rate : 48.0 kHz
Frame rate : 46.875 FPS (1024 SPF)
Compression mode : Lossy
Delay relative to video : -21 ms
Stream size : 298 MiB (3%)
Language : English
Default : Yes
Forced : No

If your ratio falls below 0.3, you will not be able to download Torrents! More about the rating.

[erzsebet.pl].t1001667.torrent
Torrent: Registered   [ 2020-08-01 15:34 ]

Download .torrent

Download

143 KB

Status: checked
Completed: 16 times
Size: 14.14 GB
terms.php

#1

01-Aug-2020 15:33

[Profile]  [PM] 
Display posts:    

You cannot post new topics in this forum
You cannot reply to topics in this forum
You cannot edit your posts in this forum
You cannot delete your posts in this forum
You cannot vote in polls in this forum
You cannot attach files in this forum
You can download files in this forum
User agreement
For copyright holders
Advertise on this site

Скачайте на халяву через торрент на трекере erzsebet.pl

!ATTENTION!
The site does not give electronic versions of products, and is engaged only in a collecting and cataloguing of the references sent and published at a forum by our readers. If you are the legal owner of any submitted material and do not wish that the reference to it was in our catalogue, contact us and we shall immediately remove her. Files for an exchange on tracker are given by users of a site, and the administration does not bear the responsibility for their maintenance. The request to not fill in the files protected by copyrights, and also files of the illegal maintenance!