NASCAR Cup Series 2020. Busch Clash (Daytona). МАТЧ! Арена HD [09.02.2020, Автоспорт, DVB-S2 Remux 1080i, Рус]

DL-List and Torrent activity
Size:  5.76 GB   |    Registered:  5 days   |    Completed:  16 times
Seeders:  1  
 
   
 
 

erzsebet ®

Longevity:
9 years 7 months
Posts:
518539
Location:
Венгрия

[Quote] 

NASCAR Cup Series 2020. Busch Clash. МАТЧ! Арена HD
Вид спорта: Автоспорт
Описание: Внезачётный этап NASCAR Cup Series 2020 на трассе Daytona International Speedway.
Автор рипа/записи: Ales
Качество: DVB-S2 Remux
Формат видео: MKV
Видео: H264, 1920x1080Ι, 25 кадр/c, 6 500 kb/s
Аудио: MP2 2.0, 48.0 KHz, 192 kb/s
Язык комментариев:
  • Русский (Владимир Башмаков и Алексей Попов)
    Дата/Год выпуска: 09.02.2020

    Продолжительность

    2:06:13

    Скриншоты

    MediaInfo

    General
    Unique ID : 242415448065790152449362424064832604299 (0xB65F845CCFD0F7567B937664CDCA888B)
    Complete name : F:\NCS_NASCAR_2020_RUS_1080I\NASCAR.Cup.Series.2020.Busch.Clash.Матч!Арена.1080I.Rus.mkv
    Format : Matroska
    Format version : Version 4
    File size : 5.76 GiB
    Duration : 2 h 6 min
    Overall bit rate : 6 537 kb/s
    Encoded date : UTC 2020-02-09 22:36:41
    Writing application : mkvmerge v43.0.0 ('The Quartermaster') 64-bit
    Writing library : libebml v1.3.10 + libmatroska v1.5.2
    Video
    ID : 1
    Format : AVC
    Format/Info : Advanced Video Codec
    Format profile : [email protected]
    Format settings : CABAC / 4 Ref Frames
    Format settings, CABAC : Yes
    Format settings, Reference frames : 4 frames
    Codec ID : V_MPEG4/ISO/AVC
    Duration : 2 h 6 min
    Bit rate : 6 337 kb/s
    Width : 1 920 pixels
    Height : 1 080 pixels
    Display aspect ratio : 16:9
    Frame rate mode : Variable
    Frame rate : 49.937 FPS
    Original frame rate : 25.000 FPS
    Standard : Component
    Color space : YUV
    Chroma subsampling : 4:2:0
    Bit depth : 8 bits
    Scan type : Interlaced
    Scan type, store method : Separated fields
    Scan order : Top Field First
    Bits/(Pixel*Frame) : 0.061
    Stream size : 5.59 GiB (97%)
    Default : Yes
    Forced : No
    Color range : Limited
    Color primaries : BT.709
    Transfer characteristics : BT.709
    Matrix coefficients : BT.709
    Audio
    ID : 2
    Format : MPEG Audio
    Format version : Version 1
    Format profile : Layer 2
    Codec ID : A_MPEG/L2
    Codec ID/Hint : MP2
    Duration : 2 h 6 min
    Bit rate mode : Constant
    Bit rate : 192 kb/s
    Channel(s) : 2 channels
    Sampling rate : 48.0 kHz
    Frame rate : 41.666 FPS (1152 SPF)
    Compression mode : Lossy
    Stream size : 173 MiB (3%)
    Language : Russian
    Default : Yes
    Forced : No

    If your ratio falls below 0.3, you will not be able to download Torrents! More about the rating.

    [erzsebet.pl].t1001675.torrent
    Torrent: Registered   [ 2020-08-01 15:34 ]

    Download .torrent

    Download

    58 KB

    Status: checked
    Completed: 16 times
    Size: 5.76 GB
    terms.php
  • #1

    01-Aug-2020 15:33

    [Profile]  [PM] 
    Display posts:    

    You cannot post new topics in this forum
    You cannot reply to topics in this forum
    You cannot edit your posts in this forum
    You cannot delete your posts in this forum
    You cannot vote in polls in this forum
    You cannot attach files in this forum
    You can download files in this forum
    User agreement
    For copyright holders
    Advertise on this site

    Скачайте на халяву через торрент на трекере erzsebet.pl

    !ATTENTION!
    The site does not give electronic versions of products, and is engaged only in a collecting and cataloguing of the references sent and published at a forum by our readers. If you are the legal owner of any submitted material and do not wish that the reference to it was in our catalogue, contact us and we shall immediately remove her. Files for an exchange on tracker are given by users of a site, and the administration does not bear the responsibility for their maintenance. The request to not fill in the files protected by copyrights, and also files of the illegal maintenance!