NASCAR Cup Series 2020. Busch Clash (Daytona). МАТЧ! Арена HD [09.02.2020, Автоспорт, DVB-S2 Rip 720p, Рус]

DL-List and Torrent activity
Size:  3.69 GB   |    Registered:  7 days   |    Completed:  16 times
Seeders:  1  
 
   
 
 

erzsebet ®

Longevity:
9 years 7 months
Posts:
528156
Location:
Венгрия

[Quote] 

NASCAR Cup Series 2020. Busch Clash. МАТЧ! Арена HD
Вид спорта: Автоспорт
Описание: Внезачётный этап NASCAR Cup Series 2020 на трассе Daytona International Speedway.
Автор рипа/записи: Ales
Качество: DVB-S2 Rip
Формат видео: MKV
Видео: H264, 1280x720P, 50 кадр/c, 4 000 kb/s
Аудио: MP2 2.0, 48.0 KHz, 192 kb/s
Язык комментариев:
  • Русский (Владимир Башмаков и Алексей Попов)
    Дата/Год выпуска: 09.02.2020

    Продолжительность

    2:06:13

    Скриншоты

    MediaInfo

    General
    Unique ID : 38130391545290944392512870139459811268 (0x1CAFA5730DB88D06660D007FF78837C4)
    Complete name : F:\NCS_NASCAR_2020_RUS_720P\NASCAR.Cup.Series.2020.Busch.Clash.Матч!Арена.720P.Rus.mkv
    Format : Matroska
    Format version : Version 4
    File size : 3.69 GiB
    Duration : 2 h 6 min
    Overall bit rate : 4 186 kb/s
    Writing application : Lavf58.26.101
    Writing library : Lavf58.26.101
    ErrorDetectionType : Per level 1
    Video
    ID : 1
    Format : AVC
    Format/Info : Advanced Video Codec
    Format profile : [email protected]
    Format settings : CABAC / 4 Ref Frames
    Format settings, CABAC : Yes
    Format settings, Reference frames : 4 frames
    Codec ID : V_MPEG4/ISO/AVC
    Duration : 2 h 6 min
    Bit rate : 4 000 kb/s
    Width : 1 280 pixels
    Height : 720 pixels
    Display aspect ratio : 16:9
    Frame rate mode : Constant
    Frame rate : 50.000 FPS
    Color space : YUV
    Chroma subsampling : 4:2:0
    Bit depth : 8 bits
    Scan type : Progressive
    Bits/(Pixel*Frame) : 0.087
    Stream size : 3.45 GiB (93%)
    Writing library : x264 core 157 r2935 545de2f
    Encoding settings : cabac=1 / ref=3 / deblock=1:0:0 / analyse=0x3:0x113 / me=hex / subme=7 / psy=1 / psy_rd=1.00:0.00 / mixed_ref=1 / me_range=16 / chroma_me=1 / trellis=1 / 8x8dct=1 / cqm=0 / deadzone=21,11 / fast_pskip=1 / chroma_qp_offset=-2 / threads=22 / lookahead_threads=3 / sliced_threads=0 / nr=0 / decimate=1 / interlaced=0 / bluray_compat=0 / constrained_intra=0 / bframes=3 / b_pyramid=2 / b_adapt=1 / b_bias=0 / direct=1 / weightb=1 / open_gop=0 / weightp=2 / keyint=250 / keyint_min=25 / scenecut=40 / intra_refresh=0 / rc_lookahead=40 / rc=abr / mbtree=1 / bitrate=4000 / ratetol=1.0 / qcomp=0.60 / qpmin=0 / qpmax=69 / qpstep=4 / ip_ratio=1.40 / aq=1:1.00
    Default : Yes
    Forced : No
    Audio
    ID : 2
    Format : MPEG Audio
    Format version : Version 1
    Format profile : Layer 2
    Codec ID : A_MPEG/L2
    Codec ID/Hint : MP2
    Duration : 2 h 6 min
    Bit rate mode : Constant
    Bit rate : 192 kb/s
    Channel(s) : 2 channels
    Sampling rate : 48.0 kHz
    Compression mode : Lossy
    Stream size : 173 MiB (5%)
    Language : Russian
    Default : Yes
    Forced : No

    If your ratio falls below 0.3, you will not be able to download Torrents! More about the rating.

    [erzsebet.pl].t1001677.torrent
    Torrent: Registered   [ 2020-08-01 15:34 ]

    Download .torrent

    Download

    37 KB

    Status: checked
    Completed: 16 times
    Size: 3.69 GB
    terms.php
  • #1

    01-Aug-2020 15:33

    [Profile]  [PM] 
    Display posts:    

    You cannot post new topics in this forum
    You cannot reply to topics in this forum
    You cannot edit your posts in this forum
    You cannot delete your posts in this forum
    You cannot vote in polls in this forum
    You cannot attach files in this forum
    You can download files in this forum
    User agreement
    For copyright holders
    Advertise on this site

    Скачайте на халяву через торрент на трекере erzsebet.pl

    !ATTENTION!
    The site does not give electronic versions of products, and is engaged only in a collecting and cataloguing of the references sent and published at a forum by our readers. If you are the legal owner of any submitted material and do not wish that the reference to it was in our catalogue, contact us and we shall immediately remove her. Files for an exchange on tracker are given by users of a site, and the administration does not bear the responsibility for their maintenance. The request to not fill in the files protected by copyrights, and also files of the illegal maintenance!