NASCAR Cup Series 2020. Этап 01. Daytona 500 (Daytona). Weekend On FOX [08.02.2020-16.02.2020, Автоспорт, IPTV 720P60fps, Англ] + Гонка

DL-List and Torrent activity
Size:  35.68 GB   |    Registered:  10 days   |    Completed:  16 times
Seeders:  1  
 
   
 
 

erzsebet ®

Longevity:
9 years 7 months
Posts:
576318
Location:
Венгрия

[Quote] 

NASCAR Cup Series 2020. Этап 01. Daytona 500. Weekend On FOX
Вид спорта: Автоспорт
Описание: 1 этап NASCAR Cup Series 2020 на трассе Daytona International Speedway.
Автор рипа/записи: Ales
Качество: IPTV
Формат видео: MKV
Видео: H264, 1280x720P, 60 кадр/c, 6 500 kb/s
Аудио: AAC 2.0, 48 KHz, 128 kb/s
Язык комментариев: Английский

1-ая практика

Дата/Год выпуска: 08.02.2020

Продолжительность

0:42:23

Скриншоты

MediaInfo

General
Unique ID : 243667921817517333937876015152975204385 (0xB750BC160D793EAE8B453A5AFB165021)
Complete name : F:\NCS_NASCAR_2020_ENG\NASCAR.Cup.Series.2020.R01.Daytona.500.Weekend.On.FOX.720P\01.NASCAR.Cup.Series.2020.R01.Daytona.500.Practice.One.FS1.720P.mkv
Format : Matroska
Format version : Version 4
File size : 1.95 GiB
Duration : 42 min 23 s
Overall bit rate : 6 591 kb/s
Encoded date : UTC 2020-02-09 10:30:46
Writing application : mkvmerge v43.0.0 ('The Quartermaster') 64-bit
Writing library : libebml v1.3.10 + libmatroska v1.5.2
Video
ID : 1
Format : AVC
Format/Info : Advanced Video Codec
Format profile : [email protected]
Format settings : CABAC / 2 Ref Frames
Format settings, CABAC : Yes
Format settings, Reference frames : 2 frames
Codec ID : V_MPEG4/ISO/AVC
Duration : 42 min 23 s
Bit rate mode : Constant
Bit rate : 6 464 kb/s
Width : 1 280 pixels
Height : 720 pixels
Display aspect ratio : 16:9
Frame rate mode : Constant
Frame rate : 59.940 (60000/1001) FPS
Standard : Component
Color space : YUV
Chroma subsampling : 4:2:0
Bit depth : 8 bits
Scan type : Progressive
Bits/(Pixel*Frame) : 0.117
Stream size : 1.91 GiB (98%)
Default : Yes
Forced : No
Color range : Limited
Color primaries : BT.709
Transfer characteristics : BT.709
Matrix coefficients : BT.709
Audio
ID : 2
Format : AAC LC
Format/Info : Advanced Audio Codec Low Complexity
Codec ID : A_AAC-2
Duration : 42 min 23 s
Bit rate : 125 kb/s
Channel(s) : 2 channels
Channel layout : L R
Sampling rate : 48.0 kHz
Frame rate : 46.875 FPS (1024 SPF)
Compression mode : Lossy
Stream size : 38.0 MiB (2%)
Language : English
Default : Yes
Forced : No

Race Hub

Дата/Год выпуска: 08.02.2020

Продолжительность

0:44:03

Скриншоты

MediaInfo

General
Unique ID : 230921615485814360350812484035206400687 (0xADB9E2AA092AA4DD622839E001DF4AAF)
Complete name : F:\NCS_NASCAR_2020_ENG\NASCAR.Cup.Series.2020.R01.Daytona.500.Weekend.On.FOX.720P\02.NASCAR.Cup.Series.2020.R01.Daytona.500.Race.Hub.FS1.720P.mkv
Format : Matroska
Format version : Version 4
File size : 2.03 GiB
Duration : 44 min 3 s
Overall bit rate : 6 590 kb/s
Encoded date : UTC 2020-02-09 10:31:33
Writing application : mkvmerge v43.0.0 ('The Quartermaster') 64-bit
Writing library : libebml v1.3.10 + libmatroska v1.5.2
Video
ID : 1
Format : AVC
Format/Info : Advanced Video Codec
Format profile : [email protected]
Format settings : CABAC / 2 Ref Frames
Format settings, CABAC : Yes
Format settings, Reference frames : 2 frames
Codec ID : V_MPEG4/ISO/AVC
Duration : 44 min 3 s
Bit rate mode : Constant
Bit rate : 6 464 kb/s
Width : 1 280 pixels
Height : 720 pixels
Display aspect ratio : 16:9
Frame rate mode : Constant
Frame rate : 59.940 (60000/1001) FPS
Standard : Component
Color space : YUV
Chroma subsampling : 4:2:0
Bit depth : 8 bits
Scan type : Progressive
Bits/(Pixel*Frame) : 0.117
Stream size : 1.99 GiB (98%)
Default : Yes
Forced : No
Color range : Limited
Color primaries : BT.709
Transfer characteristics : BT.709
Matrix coefficients : BT.709
Audio
ID : 2
Format : AAC LC
Format/Info : Advanced Audio Codec Low Complexity
Codec ID : A_AAC-2
Duration : 44 min 3 s
Bit rate : 125 kb/s
Channel(s) : 2 channels
Channel layout : L R
Sampling rate : 48.0 kHz
Frame rate : 46.875 FPS (1024 SPF)
Compression mode : Lossy
Delay relative to video : -13 ms
Stream size : 39.5 MiB (2%)
Language : English
Default : Yes
Forced : No

2-ая практика

Дата/Год выпуска: 08.02.2020

Продолжительность

0:42:25

Скриншоты

MediaInfo

General
Unique ID : 268340092308448193455185260310739306742 (0xC9E06C02022E2AB090C0C0189DF448F6)
Complete name : F:\NCS_NASCAR_2020_ENG\NASCAR.Cup.Series.2020.R01.Daytona.500.Weekend.On.FOX.720P\03.NASCAR.Cup.Series.2020.R01.Daytona.500.Practice.Two.FS1.720P.mkv
Format : Matroska
Format version : Version 4
File size : 1.95 GiB
Duration : 42 min 25 s
Overall bit rate : 6 592 kb/s
Encoded date : UTC 2020-02-09 10:32:21
Writing application : mkvmerge v43.0.0 ('The Quartermaster') 64-bit
Writing library : libebml v1.3.10 + libmatroska v1.5.2
Video
ID : 1
Format : AVC
Format/Info : Advanced Video Codec
Format profile : [email protected]
Format settings : CABAC / 2 Ref Frames
Format settings, CABAC : Yes
Format settings, Reference frames : 2 frames
Codec ID : V_MPEG4/ISO/AVC
Duration : 42 min 25 s
Bit rate mode : Constant
Bit rate : 6 464 kb/s
Width : 1 280 pixels
Height : 720 pixels
Display aspect ratio : 16:9
Frame rate mode : Constant
Frame rate : 59.940 (60000/1001) FPS
Standard : Component
Color space : YUV
Chroma subsampling : 4:2:0
Bit depth : 8 bits
Scan type : Progressive
Bits/(Pixel*Frame) : 0.117
Stream size : 1.92 GiB (98%)
Default : Yes
Forced : No
Color range : Limited
Color primaries : BT.709
Transfer characteristics : BT.709
Matrix coefficients : BT.709
Audio
ID : 2
Format : AAC LC
Format/Info : Advanced Audio Codec Low Complexity
Codec ID : A_AAC-2
Duration : 42 min 25 s
Bit rate : 125 kb/s
Channel(s) : 2 channels
Channel layout : L R
Sampling rate : 48.0 kHz
Frame rate : 46.875 FPS (1024 SPF)
Compression mode : Lossy
Delay relative to video : -11 ms
Stream size : 38.1 MiB (2%)
Language : English
Default : Yes
Forced : No

Race Hub

Дата/Год выпуска: 08.02.2020

Продолжительность

0:21:50

Скриншоты

MediaInfo

General
Unique ID : 179409698489039740695641079382330297108 (0x86F90D127CE5E57AD8516C675E9BCB14)
Complete name : F:\NCS_NASCAR_2020_ENG\NASCAR.Cup.Series.2020.R01.Daytona.500.Weekend.On.FOX.720P\04.NASCAR.Cup.Series.2020.R01.Daytona.500.Race.Hub.FS1.720P.mkv
Format : Matroska
Format version : Version 4
File size : 1.01 GiB
Duration : 21 min 50 s
Overall bit rate : 6 592 kb/s
Encoded date : UTC 2020-02-09 10:33:07
Writing application : mkvmerge v43.0.0 ('The Quartermaster') 64-bit
Writing library : libebml v1.3.10 + libmatroska v1.5.2
Video
ID : 1
Format : AVC
Format/Info : Advanced Video Codec
Format profile : [email protected]
Format settings : CABAC / 2 Ref Frames
Format settings, CABAC : Yes
Format settings, Reference frames : 2 frames
Codec ID : V_MPEG4/ISO/AVC
Duration : 21 min 50 s
Bit rate mode : Constant
Bit rate : 6 464 kb/s
Width : 1 280 pixels
Height : 720 pixels
Display aspect ratio : 16:9
Frame rate mode : Constant
Frame rate : 59.940 (60000/1001) FPS
Standard : Component
Color space : YUV
Chroma subsampling : 4:2:0
Bit depth : 8 bits
Scan type : Progressive
Bits/(Pixel*Frame) : 0.117
Stream size : 1 010 MiB (98%)
Default : Yes
Forced : No
Color range : Limited
Color primaries : BT.709
Transfer characteristics : BT.709
Matrix coefficients : BT.709
Audio
ID : 2
Format : AAC LC
Format/Info : Advanced Audio Codec Low Complexity
Codec ID : A_AAC-2
Duration : 21 min 50 s
Bit rate : 125 kb/s
Channel(s) : 2 channels
Channel layout : L R
Sampling rate : 48.0 kHz
Frame rate : 46.875 FPS (1024 SPF)
Compression mode : Lossy
Delay relative to video : -19 ms
Stream size : 19.6 MiB (2%)
Language : English
Default : Yes
Forced : No

Квалификация

Дата/Год выпуска: 08.02.2020

Продолжительность

1:25:39

Скриншоты

MediaInfo

General
Unique ID : 91021248685672807311963423282213963389 (0x447A0E0A1ED44C43BCE5138F7590467D)
Complete name : F:\NCS_NASCAR_2020_ENG\NASCAR.Cup.Series.2020.R01.Daytona.500.Weekend.On.FOX.720P\05.NASCAR.Cup.Series.2020.R01.Daytona.500.Qualifying.FOX.720P.mkv
Format : Matroska
Format version : Version 4
File size : 3.18 GiB
Duration : 1 h 25 min
Overall bit rate mode : Variable
Overall bit rate : 5 318 kb/s
Encoded date : UTC 2020-02-11 19:47:21
Writing application : mkvmerge v43.0.0 ('The Quartermaster') 64-bit
Writing library : libebml v1.3.10 + libmatroska v1.5.2
Video
ID : 1
Format : AVC
Format/Info : Advanced Video Codec
Format profile : [email protected]
Format settings : CABAC / 4 Ref Frames
Format settings, CABAC : Yes
Format settings, Reference frames : 4 frames
Codec ID : V_MPEG4/ISO/AVC
Duration : 1 h 25 min
Bit rate mode : Variable
Bit rate : 5 220 kb/s
Maximum bit rate : 8 000 kb/s
Width : 1 280 pixels
Height : 720 pixels
Display aspect ratio : 16:9
Frame rate mode : Constant
Frame rate : 59.940 (60000/1001) FPS
Standard : Component
Color space : YUV
Chroma subsampling : 4:2:0
Bit depth : 8 bits
Scan type : Progressive
Bits/(Pixel*Frame) : 0.094
Stream size : 3.12 GiB (98%)
Default : Yes
Forced : No
Color range : Limited
Color primaries : BT.709
Transfer characteristics : BT.709
Matrix coefficients : BT.709
Audio
ID : 2
Format : AAC LC SBR
Format/Info : Advanced Audio Codec Low Complexity with Spectral Band Replication
Commercial name : HE-AAC
Format settings : Implicit
Codec ID : A_AAC-2
Duration : 1 h 25 min
Bit rate : 96.0 kb/s
Channel(s) : 2 channels
Channel layout : L R
Sampling rate : 48.0 kHz
Frame rate : 23.438 FPS (2048 SPF)
Compression mode : Lossy
Delay relative to video : -3 ms
Stream size : 58.0 MiB (2%)
Language : English
Default : Yes
Forced : No

3-я практика

Дата/Год выпуска: 14.02.2020

Продолжительность

0:42:22

Скриншоты

MediaInfo

General
Unique ID : 282269173715749008283887029887808365941 (0xD45B10BE4B563E588AE9298FFD84E575)
Complete name : F:\NCS_NASCAR_2020_ENG\NASCAR.Cup.Series.2020.R01.Daytona.500.Weekend.On.FOX.720P\06.NASCAR.Cup.Series.2020.R01.Daytona.500.Practice.Three.FS1.720P.mkv
Format : Matroska
Format version : Version 4
File size : 1.95 GiB
Duration : 42 min 22 s
Overall bit rate : 6 598 kb/s
Encoded date : UTC 2020-02-17 20:36:06
Writing application : mkvmerge v43.0.0 ('The Quartermaster') 64-bit
Writing library : libebml v1.3.10 + libmatroska v1.5.2
Video
ID : 1
Format : AVC
Format/Info : Advanced Video Codec
Format profile : [email protected]
Format settings : CABAC / 2 Ref Frames
Format settings, CABAC : Yes
Format settings, Reference frames : 2 frames
Codec ID : V_MPEG4/ISO/AVC
Duration : 42 min 22 s
Bit rate mode : Constant
Bit rate : 6 464 kb/s
Width : 1 280 pixels
Height : 720 pixels
Display aspect ratio : 16:9
Frame rate mode : Constant
Frame rate : 59.940 (60000/1001) FPS
Standard : Component
Color space : YUV
Chroma subsampling : 4:2:0
Bit depth : 8 bits
Scan type : Progressive
Bits/(Pixel*Frame) : 0.117
Stream size : 1.91 GiB (98%)
Default : Yes
Forced : No
Color range : Limited
Color primaries : BT.709
Transfer characteristics : BT.709
Matrix coefficients : BT.709
Audio
ID : 2
Format : AAC LC
Format/Info : Advanced Audio Codec Low Complexity
Codec ID : A_AAC-2
Duration : 42 min 22 s
Bit rate : 125 kb/s
Channel(s) : 2 channels
Channel layout : L R
Sampling rate : 48.0 kHz
Frame rate : 46.875 FPS (1024 SPF)
Compression mode : Lossy
Delay relative to video : -13 ms
Stream size : 38.0 MiB (2%)
Language : English
Default : Yes
Forced : No

Race Hub

Дата/Год выпуска: 14.02.2020

Продолжительность

0:23:37

Скриншоты

MediaInfo

General
Unique ID : 114870624950858863192290482938779181246 (0x566B4712E9A089FC7814B0032D9EA0BE)
Complete name : F:\NCS_NASCAR_2020_ENG\NASCAR.Cup.Series.2020.R01.Daytona.500.Weekend.On.FOX.720P\07.NASCAR.Cup.Series.2020.R01.Daytona.500.Race.Hub.FS1.720P.mkv
Format : Matroska
Format version : Version 4
File size : 1.08 GiB
Duration : 23 min 27 s
Overall bit rate : 6 590 kb/s
Encoded date : UTC 2020-02-17 20:37:02
Writing application : mkvmerge v43.0.0 ('The Quartermaster') 64-bit
Writing library : libebml v1.3.10 + libmatroska v1.5.2
Video
ID : 1
Format : AVC
Format/Info : Advanced Video Codec
Format profile : [email protected]
Format settings : CABAC / 2 Ref Frames
Format settings, CABAC : Yes
Format settings, Reference frames : 2 frames
Codec ID : V_MPEG4/ISO/AVC
Duration : 23 min 27 s
Bit rate mode : Constant
Bit rate : 6 464 kb/s
Width : 1 280 pixels
Height : 720 pixels
Display aspect ratio : 16:9
Frame rate mode : Constant
Frame rate : 59.940 (60000/1001) FPS
Standard : Component
Color space : YUV
Chroma subsampling : 4:2:0
Bit depth : 8 bits
Scan type : Progressive
Bits/(Pixel*Frame) : 0.117
Stream size : 1.06 GiB (98%)
Default : Yes
Forced : No
Color range : Limited
Color primaries : BT.709
Transfer characteristics : BT.709
Matrix coefficients : BT.709
Audio
ID : 2
Format : AAC LC
Format/Info : Advanced Audio Codec Low Complexity
Codec ID : A_AAC-2
Duration : 23 min 27 s
Bit rate : 125 kb/s
Channel(s) : 2 channels
Channel layout : L R
Sampling rate : 48.0 kHz
Frame rate : 46.875 FPS (1024 SPF)
Compression mode : Lossy
Delay relative to video : -20 ms
Stream size : 21.0 MiB (2%)
Language : English
Default : Yes
Forced : No

Финальная практика

Дата/Год выпуска: 15.02.2020

Продолжительность

0:42:34

Скриншоты

MediaInfo

General
Unique ID : 234134293928699482143992234457412805289 (0xB0249FF0D47C442491A81F79E51A22A9)
Complete name : F:\NCS_NASCAR_2020_ENG\NASCAR.Cup.Series.2020.R01.Daytona.500.Weekend.On.FOX.720P\08.NASCAR.Cup.Series.2020.R01.Daytona.500.Final.Practice.FS1.720P.mkv
Format : Matroska
Format version : Version 4
File size : 1.96 GiB
Duration : 42 min 34 s
Overall bit rate : 6 593 kb/s
Encoded date : UTC 2020-02-17 20:37:26
Writing application : mkvmerge v43.0.0 ('The Quartermaster') 64-bit
Writing library : libebml v1.3.10 + libmatroska v1.5.2
Video
ID : 1
Format : AVC
Format/Info : Advanced Video Codec
Format profile : [email protected]
Format settings : CABAC / 2 Ref Frames
Format settings, CABAC : Yes
Format settings, Reference frames : 2 frames
Codec ID : V_MPEG4/ISO/AVC
Duration : 42 min 34 s
Bit rate mode : Constant
Bit rate : 6 464 kb/s
Width : 1 280 pixels
Height : 720 pixels
Display aspect ratio : 16:9
Frame rate mode : Constant
Frame rate : 59.940 (60000/1001) FPS
Standard : Component
Color space : YUV
Chroma subsampling : 4:2:0
Bit depth : 8 bits
Scan type : Progressive
Bits/(Pixel*Frame) : 0.117
Stream size : 1.92 GiB (98%)
Default : Yes
Forced : No
Color range : Limited
Color primaries : BT.709
Transfer characteristics : BT.709
Matrix coefficients : BT.709
Audio
ID : 2
Format : AAC LC
Format/Info : Advanced Audio Codec Low Complexity
Codec ID : A_AAC-2
Duration : 42 min 34 s
Bit rate : 125 kb/s
Channel(s) : 2 channels
Channel layout : L R
Sampling rate : 48.0 kHz
Frame rate : 46.875 FPS (1024 SPF)
Compression mode : Lossy
Stream size : 38.2 MiB (2%)
Language : English
Default : Yes
Forced : No

Pre Race

Дата/Год выпуска: 16.02.2020

Продолжительность

1:30:16

Скриншоты

MediaInfo

General
Unique ID : 124966327085325446040526165116770360044 (0x5E03A39E81BD84174725D2C8FDAC9AEC)
Complete name : F:\NCS_NASCAR_2020_ENG\NASCAR.Cup.Series.2020.R01.Daytona.500.Weekend.On.FOX.720P\09.NASCAR.Cup.Series.2020.R01.Daytona.500.Pre.Race.FS1.720P.mkv
Format : Matroska
Format version : Version 4
File size : 4.15 GiB
Duration : 1 h 30 min
Overall bit rate : 6 583 kb/s
Encoded date : UTC 2020-02-18 05:41:09
Writing application : mkvmerge v43.0.0 ('The Quartermaster') 64-bit
Writing library : libebml v1.3.10 + libmatroska v1.5.2
Video
ID : 1
Format : AVC
Format/Info : Advanced Video Codec
Format profile : [email protected]
Format settings : CABAC / 2 Ref Frames
Format settings, CABAC : Yes
Format settings, Reference frames : 2 frames
Codec ID : V_MPEG4/ISO/AVC
Duration : 1 h 30 min
Bit rate mode : Constant
Bit rate : 6 464 kb/s
Width : 1 280 pixels
Height : 720 pixels
Display aspect ratio : 16:9
Frame rate mode : Constant
Frame rate : 59.940 (60000/1001) FPS
Standard : Component
Color space : YUV
Chroma subsampling : 4:2:0
Bit depth : 8 bits
Scan type : Progressive
Bits/(Pixel*Frame) : 0.117
Stream size : 4.07 GiB (98%)
Default : Yes
Forced : No
Color range : Limited
Color primaries : BT.709
Transfer characteristics : BT.709
Matrix coefficients : BT.709
Audio
ID : 2
Format : AAC LC
Format/Info : Advanced Audio Codec Low Complexity
Codec ID : A_AAC-2
Duration : 1 h 30 min
Bit rate : 125 kb/s
Channel(s) : 2 channels
Channel layout : L R
Sampling rate : 48.0 kHz
Frame rate : 46.875 FPS (1024 SPF)
Compression mode : Lossy
Delay relative to video : -18 ms
Stream size : 81.0 MiB (2%)
Language : English
Default : Yes
Forced : No

Гонка. Часть 1-ая

Дата/Год выпуска: 16.02.2020

Продолжительность

3:32:21

Скриншоты

MediaInfo

General
Unique ID : 102845131241509322818998390420283867178 (0x4D5F40754290348B9F3628CB53F4402A)
Complete name : F:\NCS_NASCAR_2020_ENG\NASCAR.Cup.Series.2020.R01.Daytona.500.Weekend.On.FOX.720P\10.NASCAR.Cup.Series.2020.R01.Daytona.500.Race.Part.1.FOX.720P.mkv
Format : Matroska
Format version : Version 4
File size : 8.39 GiB
Duration : 3 h 32 min
Overall bit rate : 5 655 kb/s
Encoded date : UTC 2020-02-18 06:27:27
Writing application : mkvmerge v43.0.0 ('The Quartermaster') 64-bit
Writing library : libebml v1.3.10 + libmatroska v1.5.2
Video
ID : 1
Format : AVC
Format/Info : Advanced Video Codec
Format profile : [email protected]
Format settings : CABAC / 4 Ref Frames
Format settings, CABAC : Yes
Format settings, Reference frames : 4 frames
Codec ID : V_MPEG4/ISO/AVC
Duration : 3 h 32 min
Bit rate : 5 524 kb/s
Nominal bit rate : 6 000 kb/s
Width : 1 280 pixels
Height : 720 pixels
Display aspect ratio : 16:9
Frame rate mode : Variable
Frame rate : 58.738 FPS
Color space : YUV
Chroma subsampling : 4:2:0
Bit depth : 8 bits
Scan type : Progressive
Bits/(Pixel*Frame) : 0.102
Stream size : 8.19 GiB (98%)
Writing library : x264 core 157 r2935 545de2f
Encoding settings : cabac=1 / ref=3 / deblock=1:0:0 / analyse=0x3:0x113 / me=hex / subme=7 / psy=1 / psy_rd=1.00:0.00 / mixed_ref=1 / me_range=16 / chroma_me=1 / trellis=1 / 8x8dct=1 / cqm=0 / deadzone=21,11 / fast_pskip=1 / chroma_qp_offset=-2 / threads=22 / lookahead_threads=3 / sliced_threads=0 / nr=0 / decimate=1 / interlaced=0 / bluray_compat=0 / constrained_intra=0 / bframes=3 / b_pyramid=2 / b_adapt=1 / b_bias=0 / direct=1 / weightb=1 / open_gop=0 / weightp=2 / keyint=250 / keyint_min=25 / scenecut=40 / intra_refresh=0 / rc_lookahead=40 / rc=abr / mbtree=1 / bitrate=6000 / ratetol=1.0 / qcomp=0.60 / qpmin=0 / qpmax=69 / qpstep=4 / ip_ratio=1.40 / aq=1:1.00
Default : Yes
Forced : No
Audio
ID : 2
Format : AAC LC
Format/Info : Advanced Audio Codec Low Complexity
Codec ID : A_AAC-2
Duration : 3 h 32 min
Bit rate : 126 kb/s
Channel(s) : 2 channels
Channel layout : L R
Sampling rate : 48.0 kHz
Frame rate : 46.875 FPS (1024 SPF)
Compression mode : Lossy
Delay relative to video : -12 ms
Stream size : 191 MiB (2%)
Default : Yes
Forced : No

Гонка. Часть 2-ая

Дата/Год выпуска: 17.02.2020

Продолжительность

3:25:15

Скриншоты

MediaInfo

General
Unique ID : 34891529178820705966913611660798735402 (0x1A3FDD34AE48C010AD0AF5480688342A)
Complete name : F:\NCS_NASCAR_2020_ENG\NASCAR.Cup.Series.2020.R01.Daytona.500.Weekend.On.FOX.720P\11.NASCAR.Cup.Series.2020.R01.Daytona.500.Race.Part.2.FOX.720P.mkv
Format : Matroska
Format version : Version 4
File size : 8.02 GiB
Duration : 3 h 25 min
Overall bit rate : 5 596 kb/s
Encoded date : UTC 2020-02-18 06:51:38
Writing application : mkvmerge v43.0.0 ('The Quartermaster') 64-bit
Writing library : libebml v1.3.10 + libmatroska v1.5.2
Video
ID : 1
Format : AVC
Format/Info : Advanced Video Codec
Format profile : [email protected]
Format settings : CABAC / 2 Ref Frames
Format settings, CABAC : Yes
Format settings, Reference frames : 2 frames
Codec ID : V_MPEG4/ISO/AVC
Duration : 3 h 25 min
Bit rate mode : Constant
Bit rate : 5 469 kb/s
Width : 1 280 pixels
Height : 720 pixels
Display aspect ratio : 16:9
Frame rate mode : Constant
Frame rate : 59.940 (60000/1001) FPS
Standard : Component
Color space : YUV
Chroma subsampling : 4:2:0
Bit depth : 8 bits
Scan type : Progressive
Bits/(Pixel*Frame) : 0.099
Stream size : 7.84 GiB (98%)
Default : Yes
Forced : No
Color range : Limited
Color primaries : BT.709
Transfer characteristics : BT.709
Matrix coefficients : BT.709
Audio
ID : 2
Format : AAC LC
Format/Info : Advanced Audio Codec Low Complexity
Codec ID : A_AAC-2
Duration : 3 h 25 min
Bit rate : 125 kb/s
Channel(s) : 2 channels
Channel layout : L R
Sampling rate : 48.0 kHz
Frame rate : 46.875 FPS (1024 SPF)
Compression mode : Lossy
Delay relative to video : -17 ms
Stream size : 184 MiB (2%)
Language : English
Default : Yes
Forced : No

If your ratio falls below 0.3, you will not be able to download Torrents! More about the rating.

[erzsebet.pl].t1001678.torrent
Torrent: Registered   [ 2020-08-01 15:34 ]

Download .torrent

Download

359 KB

Status: checked
Completed: 16 times
Size: 35.68 GB
terms.php

#1

01-Aug-2020 15:33

[Profile]  [PM] 
Display posts:    

You cannot post new topics in this forum
You cannot reply to topics in this forum
You cannot edit your posts in this forum
You cannot delete your posts in this forum
You cannot vote in polls in this forum
You cannot attach files in this forum
You can download files in this forum
User agreement
For copyright holders
Advertise on this site

Скачайте на халяву через торрент на трекере erzsebet.pl

!ATTENTION!
The site does not give electronic versions of products, and is engaged only in a collecting and cataloguing of the references sent and published at a forum by our readers. If you are the legal owner of any submitted material and do not wish that the reference to it was in our catalogue, contact us and we shall immediately remove her. Files for an exchange on tracker are given by users of a site, and the administration does not bear the responsibility for their maintenance. The request to not fill in the files protected by copyrights, and also files of the illegal maintenance!