NASCAR Cup Series 2020. Bluegreen Vacations Duel (Daytona). Weekend On FOX [13.02.2020, Автоспорт, IPTV 720P60fps, Англ]

DL-List and Torrent activity
Size:  10.33 GB   |    Registered:  5 days   |    Completed:  16 times
Seeders:  1  
 
   
 
 

erzsebet ®

Longevity:
9 years 7 months
Posts:
518540
Location:
Венгрия

[Quote] 

NASCAR Cup Series 2020. Bluegreen Vacations Duel. Weekend On FOX
Вид спорта: Автоспорт
Описание: Внезачётная квалификационная гонка NASCAR Cup Series 2020 на трассе Daytona International Speedway перед Daytona 500.
Автор рипа/записи: Ales
Качество: IPTV
Формат видео: MKV
Видео: H264, 1280x720P, 60 кадр/c, 6 500 kb/s
Аудио: AAC 2.0, 48 KHz, 128 kb/s
Язык комментариев: Английский

Гонка

Дата/Год выпуска: 13.02.2020

Продолжительность

3:44:24

Скриншоты

MediaInfo

General
Unique ID : 192684112232091336989832073195446275544 (0x90F59C332761A50DE957B6CA04070DD8)
Complete name : F:\NCS_NASCAR_2020_ENG\NASCAR.Cup.Series.2020.Bluegreen.Vacations.Duel.Race.FS1.720P.mkv
Format : Matroska
Format version : Version 4
File size : 10.3 GiB
Duration : 3 h 44 min
Overall bit rate : 6 588 kb/s
Encoded date : UTC 2020-02-14 05:03:43
Writing application : mkvmerge v43.0.0 ('The Quartermaster') 64-bit
Writing library : libebml v1.3.10 + libmatroska v1.5.2
Video
ID : 1
Format : AVC
Format/Info : Advanced Video Codec
Format profile : [email protected]
Format settings : CABAC / 2 Ref Frames
Format settings, CABAC : Yes
Format settings, Reference frames : 2 frames
Codec ID : V_MPEG4/ISO/AVC
Duration : 3 h 44 min
Bit rate mode : Constant
Bit rate : 6 464 kb/s
Width : 1 280 pixels
Height : 720 pixels
Display aspect ratio : 16:9
Frame rate mode : Constant
Frame rate : 59.940 (60000/1001) FPS
Standard : Component
Color space : YUV
Chroma subsampling : 4:2:0
Bit depth : 8 bits
Scan type : Progressive
Bits/(Pixel*Frame) : 0.117
Stream size : 10.1 GiB (98%)
Default : Yes
Forced : No
Color range : Limited
Color primaries : BT.709
Transfer characteristics : BT.709
Matrix coefficients : BT.709
Audio
ID : 2
Format : AAC LC
Format/Info : Advanced Audio Codec Low Complexity
Codec ID : A_AAC-2
Duration : 3 h 44 min
Bit rate : 125 kb/s
Channel(s) : 2 channels
Channel layout : L R
Sampling rate : 48.0 kHz
Frame rate : 46.875 FPS (1024 SPF)
Compression mode : Lossy
Delay relative to video : -10 ms
Stream size : 201 MiB (2%)
Language : English
Default : Yes
Forced : No

If your ratio falls below 0.3, you will not be able to download Torrents! More about the rating.

[erzsebet.pl].t1001679.torrent
Torrent: Registered   [ 2020-08-01 15:34 ]

Download .torrent

Download

104 KB

Status: checked
Completed: 16 times
Size: 10.33 GB
terms.php

#1

01-Aug-2020 15:33

[Profile]  [PM] 
Display posts:    

You cannot post new topics in this forum
You cannot reply to topics in this forum
You cannot edit your posts in this forum
You cannot delete your posts in this forum
You cannot vote in polls in this forum
You cannot attach files in this forum
You can download files in this forum
User agreement
For copyright holders
Advertise on this site

Скачайте на халяву через торрент на трекере erzsebet.pl

!ATTENTION!
The site does not give electronic versions of products, and is engaged only in a collecting and cataloguing of the references sent and published at a forum by our readers. If you are the legal owner of any submitted material and do not wish that the reference to it was in our catalogue, contact us and we shall immediately remove her. Files for an exchange on tracker are given by users of a site, and the administration does not bear the responsibility for their maintenance. The request to not fill in the files protected by copyrights, and also files of the illegal maintenance!