Formula E 2019-2020. Этап 4. Mexico ePrix. МАТЧ! Игра HD [15.02.2020, Автоспорт, DVB-S2 Remux 1080i, Рус]

DL-List and Torrent activity
Size:  3.68 GB   |    Registered:  13 days   |    Completed:  16 times
Seeders:  1  
 
   
 
 

erzsebet ®

Longevity:
9 years 7 months
Posts:
624683
Location:
Венгрия

[Quote] 

Formula E 2019-2020. Этап 4. Mexico ePrix. МАТЧ! Игра HD.
Вид спорта: Автоспорт
Описание: 4 этап Formula E 2019-2020 на трассе Autódromo Hermanos Rodríguez.
Автор рипа/записи: Ales
Качество: DVB-S2 Remux 1080i
Формат видео: MKV
Видео: H264, 1920x1080Ι, 25 кадр/c, 7 600 kb/s
Аудио:
  • Dolby Digital 2.0, 48.0 KHz, 448 kb/s
  • MP2, 48.0 KHz, 192 kb/s
    Язык комментариев:
  • Русский (Алексей Попов и Наталья Фабричнова)
    Дата/Год выпуска: 15.02.2020

    Продолжительность

    1:03:42

    Скриншоты

    MediaInfo

    General
    Unique ID : 82952390035431850120838948468085548936 (0x3E680C97E5C62FD5A2AFA9F6BE38E788)
    Complete name : F:\FE_2019\FormulaE.2019-20.R04.Mexico.ePrix.Матч!Игра.1080I.Rus.mkv
    Format : Matroska
    Format version : Version 4
    File size : 3.68 GiB
    Duration : 1 h 3 min
    Overall bit rate : 8 270 kb/s
    Encoded date : UTC 2020-02-16 00:49:30
    Writing application : mkvmerge v43.0.0 ('The Quartermaster') 64-bit
    Writing library : libebml v1.3.10 + libmatroska v1.5.2
    Video
    ID : 1
    Format : AVC
    Format/Info : Advanced Video Codec
    Format profile : [email protected]
    Format settings : CABAC / 4 Ref Frames
    Format settings, CABAC : Yes
    Format settings, Reference frames : 4 frames
    Format settings, GOP : M=4, N=28
    Codec ID : V_MPEG4/ISO/AVC
    Duration : 1 h 3 min
    Bit rate : 7 622 kb/s
    Width : 1 920 pixels
    Height : 1 080 pixels
    Display aspect ratio : 16:9
    Frame rate mode : Variable
    Frame rate : 50.000 FPS
    Original frame rate : 25.000 FPS
    Standard : Component
    Color space : YUV
    Chroma subsampling : 4:2:0
    Bit depth : 8 bits
    Scan type : Interlaced
    Scan type, store method : Separated fields
    Scan order : Top Field First
    Bits/(Pixel*Frame) : 0.074
    Stream size : 3.39 GiB (92%)
    Default : Yes
    Forced : No
    Color range : Limited
    Color primaries : BT.709
    Transfer characteristics : BT.709
    Matrix coefficients : BT.709
    Audio #1
    ID : 2
    Format : AC-3
    Format/Info : Audio Coding 3
    Commercial name : Dolby Digital
    Codec ID : A_AC3
    Duration : 1 h 3 min
    Bit rate mode : Constant
    Bit rate : 448 kb/s
    Channel(s) : 2 channels
    Channel layout : L R
    Sampling rate : 48.0 kHz
    Frame rate : 31.250 FPS (1536 SPF)
    Compression mode : Lossy
    Delay relative to video : -24 ms
    Stream size : 204 MiB (5%)
    Language : Russian
    Service kind : Complete Main
    Default : Yes
    Forced : No
    Audio #2
    ID : 3
    Format : MPEG Audio
    Format version : Version 1
    Format profile : Layer 2
    Codec ID : A_MPEG/L2
    Codec ID/Hint : MP2
    Duration : 1 h 3 min
    Bit rate mode : Constant
    Bit rate : 192 kb/s
    Channel(s) : 2 channels
    Sampling rate : 48.0 kHz
    Frame rate : 41.666 FPS (1152 SPF)
    Compression mode : Lossy
    Delay relative to video : -24 ms
    Stream size : 87.5 MiB (2%)
    Language : Russian
    Default : No
    Forced : No

    If your ratio falls below 0.3, you will not be able to download Torrents! More about the rating.

    [erzsebet.pl].t1001682.torrent
    Torrent: Registered   [ 2020-08-01 15:34 ]

    Download .torrent

    Download

    37 KB

    Status: checked
    Completed: 16 times
    Size: 3.68 GB
    terms.php
  • #1

    01-Aug-2020 15:33

    [Profile]  [PM] 
    Display posts:    

    You cannot post new topics in this forum
    You cannot reply to topics in this forum
    You cannot edit your posts in this forum
    You cannot delete your posts in this forum
    You cannot vote in polls in this forum
    You cannot attach files in this forum
    You can download files in this forum
    User agreement
    For copyright holders
    Advertise on this site

    Скачайте на халяву через торрент на трекере erzsebet.pl

    !ATTENTION!
    The site does not give electronic versions of products, and is engaged only in a collecting and cataloguing of the references sent and published at a forum by our readers. If you are the legal owner of any submitted material and do not wish that the reference to it was in our catalogue, contact us and we shall immediately remove her. Files for an exchange on tracker are given by users of a site, and the administration does not bear the responsibility for their maintenance. The request to not fill in the files protected by copyrights, and also files of the illegal maintenance!