NASCAR Cup Series 2020. Этап 01. Daytona 500 (Daytona). МАТЧ! Игра HD / МАТЧ! Арена HD [16.02.2020-17.02.2020, Автоспорт, DVB-S2 Rip 720p, Рус]

DL-List and Torrent activity
Size:  10.33 GB   |    Registered:  9 days   |    Completed:  16 times
Seeders:  1  
 
   
 
 

erzsebet ®

Longevity:
9 years 7 months
Posts:
556501
Location:
Венгрия

[Quote] 

NASCAR Cup Series 2020. Этап 01. Daytona 500. МАТЧ! Арена HD
Вид спорта: Автоспорт
Описание: 1 этап NASCAR Cup Series 2020 на трассе Daytona International Speedway.
Автор рипа/записи: Ales
Качество: DVB-S2 Remux
Формат видео: MKV
Видео: H264, 1280x720P, 50 кадр/c, 4 000 kb/s
Аудио: MP2 2.0 / Dolby Digital 2.0, 48.0 KHz, 192 kb/s
Язык комментариев:
  • Русский (Владимир Башмаков и Алексей Попов)

    1-ая часть. Матч! Игра HD

    Дата/Год выпуска: 16.02.2020

    Продолжительность

    1:50:47

    Скриншоты

    MediaInfo

    General
    Unique ID : 131099290526235047980123870423093859576 (0x62A0CE0FF94671E26A261B40FBDFD4F8)
    Complete name : F:\NCS_NASCAR_2020_RUS_720P\NASCAR.Cup.Series.2020.R01.Daytona.500.720P.Rus\01.NASCAR.Cup.Series.2020.R01.Daytona.500.Part.1.Матч!Игра.720P.Rus.mkv
    Format : Matroska
    Format version : Version 4
    File size : 3.43 GiB
    Duration : 1 h 50 min
    Overall bit rate : 4 433 kb/s
    Writing application : Lavf58.26.101
    Writing library : Lavf58.26.101
    ErrorDetectionType : Per level 1
    Video
    ID : 1
    Format : AVC
    Format/Info : Advanced Video Codec
    Format profile : [email protected]
    Format settings : CABAC / 4 Ref Frames
    Format settings, CABAC : Yes
    Format settings, Reference frames : 4 frames
    Codec ID : V_MPEG4/ISO/AVC
    Duration : 1 h 50 min
    Bit rate : 4 000 kb/s
    Width : 1 280 pixels
    Height : 720 pixels
    Display aspect ratio : 16:9
    Frame rate mode : Constant
    Frame rate : 50.000 FPS
    Color space : YUV
    Chroma subsampling : 4:2:0
    Bit depth : 8 bits
    Scan type : Progressive
    Bits/(Pixel*Frame) : 0.087
    Stream size : 3.02 GiB (88%)
    Writing library : x264 core 157 r2935 545de2f
    Encoding settings : cabac=1 / ref=3 / deblock=1:0:0 / analyse=0x3:0x113 / me=hex / subme=7 / psy=1 / psy_rd=1.00:0.00 / mixed_ref=1 / me_range=16 / chroma_me=1 / trellis=1 / 8x8dct=1 / cqm=0 / deadzone=21,11 / fast_pskip=1 / chroma_qp_offset=-2 / threads=22 / lookahead_threads=3 / sliced_threads=0 / nr=0 / decimate=1 / interlaced=0 / bluray_compat=0 / constrained_intra=0 / bframes=3 / b_pyramid=2 / b_adapt=1 / b_bias=0 / direct=1 / weightb=1 / open_gop=0 / weightp=2 / keyint=250 / keyint_min=25 / scenecut=40 / intra_refresh=0 / rc_lookahead=40 / rc=abr / mbtree=1 / bitrate=4000 / ratetol=1.0 / qcomp=0.60 / qpmin=0 / qpmax=69 / qpstep=4 / ip_ratio=1.40 / aq=1:1.00
    Default : Yes
    Forced : No
    Audio
    ID : 2
    Format : AC-3
    Format/Info : Audio Coding 3
    Commercial name : Dolby Digital
    Codec ID : A_AC3
    Duration : 1 h 50 min
    Bit rate mode : Constant
    Bit rate : 448 kb/s
    Channel(s) : 2 channels
    Channel layout : L R
    Sampling rate : 48.0 kHz
    Frame rate : 31.250 FPS (1536 SPF)
    Bit depth : 32 bits
    Compression mode : Lossy
    Delay relative to video : -20 ms
    Stream size : 355 MiB (10%)
    Language : Russian
    Service kind : Complete Main
    Default : Yes
    Forced : No

    2-ая часть. Матч! Арена HD

    Дата/Год выпуска: 17.02.2020

    Продолжительность

    3:55:02

    Скриншоты

    MediaInfo

    General
    Unique ID : 322728636896694041341371833518362078060 (0xF2CB464A4A03068BD0A1A0817F622B6C)
    Complete name : F:\NCS_NASCAR_2020_RUS_720P\NASCAR.Cup.Series.2020.R01.Daytona.500.720P.Rus\02.NASCAR.Cup.Series.2020.R01.Daytona.500.Part.2.Матч!Арена.720P.Rus.mkv
    Format : Matroska
    Format version : Version 4
    File size : 6.90 GiB
    Duration : 3 h 55 min
    Overall bit rate : 4 203 kb/s
    Writing application : Lavf58.26.101
    Writing library : Lavf58.26.101
    ErrorDetectionType : Per level 1
    Video
    ID : 1
    Format : AVC
    Format/Info : Advanced Video Codec
    Format profile : [email protected]
    Format settings : CABAC / 4 Ref Frames
    Format settings, CABAC : Yes
    Format settings, Reference frames : 4 frames
    Codec ID : V_MPEG4/ISO/AVC
    Duration : 3 h 55 min
    Bit rate : 4 000 kb/s
    Width : 1 280 pixels
    Height : 720 pixels
    Display aspect ratio : 16:9
    Frame rate mode : Constant
    Frame rate : 50.000 FPS
    Color space : YUV
    Chroma subsampling : 4:2:0
    Bit depth : 8 bits
    Scan type : Progressive
    Bits/(Pixel*Frame) : 0.087
    Stream size : 6.45 GiB (93%)
    Writing library : x264 core 157 r2935 545de2f
    Encoding settings : cabac=1 / ref=3 / deblock=1:0:0 / analyse=0x3:0x113 / me=hex / subme=7 / psy=1 / psy_rd=1.00:0.00 / mixed_ref=1 / me_range=16 / chroma_me=1 / trellis=1 / 8x8dct=1 / cqm=0 / deadzone=21,11 / fast_pskip=1 / chroma_qp_offset=-2 / threads=22 / lookahead_threads=3 / sliced_threads=0 / nr=0 / decimate=1 / interlaced=0 / bluray_compat=0 / constrained_intra=0 / bframes=3 / b_pyramid=2 / b_adapt=1 / b_bias=0 / direct=1 / weightb=1 / open_gop=0 / weightp=2 / keyint=250 / keyint_min=25 / scenecut=40 / intra_refresh=0 / rc_lookahead=40 / rc=abr / mbtree=1 / bitrate=4000 / ratetol=1.0 / qcomp=0.60 / qpmin=0 / qpmax=69 / qpstep=4 / ip_ratio=1.40 / aq=1:1.00
    Default : Yes
    Forced : No
    Audio
    ID : 2
    Format : MPEG Audio
    Format version : Version 1
    Format profile : Layer 2
    Codec ID : A_MPEG/L2
    Codec ID/Hint : MP2
    Duration : 3 h 55 min
    Bit rate mode : Constant
    Bit rate : 192 kb/s
    Channel(s) : 2 channels
    Sampling rate : 48.0 kHz
    Compression mode : Lossy
    Stream size : 323 MiB (5%)
    Language : Russian
    Default : Yes
    Forced : No

    If your ratio falls below 0.3, you will not be able to download Torrents! More about the rating.

    [erzsebet.pl].t1001685.torrent
    Torrent: Registered   [ 2020-08-01 15:34 ]

    Download .torrent

    Download

    104 KB

    Status: checked
    Completed: 16 times
    Size: 10.33 GB
    terms.php
  • #1

    01-Aug-2020 15:33

    [Profile]  [PM] 
    Display posts:    

    You cannot post new topics in this forum
    You cannot reply to topics in this forum
    You cannot edit your posts in this forum
    You cannot delete your posts in this forum
    You cannot vote in polls in this forum
    You cannot attach files in this forum
    You can download files in this forum
    User agreement
    For copyright holders
    Advertise on this site

    Скачайте на халяву через торрент на трекере erzsebet.pl

    !ATTENTION!
    The site does not give electronic versions of products, and is engaged only in a collecting and cataloguing of the references sent and published at a forum by our readers. If you are the legal owner of any submitted material and do not wish that the reference to it was in our catalogue, contact us and we shall immediately remove her. Files for an exchange on tracker are given by users of a site, and the administration does not bear the responsibility for their maintenance. The request to not fill in the files protected by copyrights, and also files of the illegal maintenance!