NASCAR Xfinity Series 2020. Этап 03. Production Alliance Group 300 (California). Weekend On FOX [28.02.2020-29.02.2020, Автоспорт, IPTV 720P60fps, Англ]

DL-List and Torrent activity
Size:  12.74 GB   |    Registered:  14 days   |    Completed:  16 times
Seeders:  1  
 
   
 
 

erzsebet ®

Longevity:
9 years 7 months
Posts:
631331
Location:
Венгрия

[Quote] 

NASCAR Xfinity Series 2020. Этап 03. Production Alliance Group 300. Weekend On FOX
Вид спорта: Автоспорт
Описание: 3 этап NASCAR Xfinity Series 2020 на трассе Auto Club Speedway.
Автор рипа/записи: Ales
Качество: IPTV
Формат видео: MKV
Видео: H264, 1280x720P, 60 кадр/c, 6 500 kb/s
Аудио: AAC 2.0, 48 KHz, 128 kb/s
Язык комментариев: Английский

Практика

Дата/Год выпуска: 28.02.2020

Продолжительность

0:42:22

Скриншоты

MediaInfo

General
Unique ID : 285627843434611546258531284824805696344 (0xD6E1EBF20CEA4350A9D644E690216358)
Complete name : F:\NXS_2020\NASCAR.Xfinity.Series.2020.R03.Production.Alliance.Group.300.Weekend.On.FOX.720P\01.NASCAR.Xfinity.Series.2020.R03.Production.Alliance.Group.300.Practice.FS1.720P.mkv
Format : Matroska
Format version : Version 4
File size : 1.95 GiB
Duration : 42 min 22 s
Overall bit rate : 6 588 kb/s
Encoded date : UTC 2020-02-29 16:06:27
Writing application : mkvmerge v43.0.0 ('The Quartermaster') 64-bit
Writing library : libebml v1.3.10 + libmatroska v1.5.2
Video
ID : 1
Format : AVC
Format/Info : Advanced Video Codec
Format profile : [email protected]
Format settings : CABAC / 2 Ref Frames
Format settings, CABAC : Yes
Format settings, Reference frames : 2 frames
Codec ID : V_MPEG4/ISO/AVC
Duration : 42 min 22 s
Bit rate mode : Constant
Bit rate : 6 464 kb/s
Width : 1 280 pixels
Height : 720 pixels
Display aspect ratio : 16:9
Frame rate mode : Constant
Frame rate : 59.940 (60000/1001) FPS
Standard : Component
Color space : YUV
Chroma subsampling : 4:2:0
Bit depth : 8 bits
Scan type : Progressive
Bits/(Pixel*Frame) : 0.117
Stream size : 1.91 GiB (98%)
Default : Yes
Forced : No
Color range : Limited
Color primaries : BT.709
Transfer characteristics : BT.709
Matrix coefficients : BT.709
Audio
ID : 2
Format : AAC LC
Format/Info : Advanced Audio Codec Low Complexity
Codec ID : A_AAC-2
Duration : 42 min 22 s
Bit rate : 125 kb/s
Channel(s) : 2 channels
Channel layout : L R
Sampling rate : 48.0 kHz
Frame rate : 46.875 FPS (1024 SPF)
Compression mode : Lossy
Delay relative to video : -18 ms
Stream size : 38.0 MiB (2%)
Language : English
Default : Yes
Forced : No

Финальная практика

Дата/Год выпуска: 28.02.2020

Продолжительность

0:22:33

Скриншоты

MediaInfo

General
Unique ID : 337743318164401046134046168306486505646 (0xFE16FF3B3139603B23FD2FBB741A70AE)
Complete name : F:\NXS_2020\NASCAR.Xfinity.Series.2020.R03.Production.Alliance.Group.300.Weekend.On.FOX.720P\02.NASCAR.Xfinity.Series.2020.R03.Production.Alliance.Group.300.Final.Practice.FS1.720P.mkv
Format : Matroska
Format version : Version 4
File size : 1.04 GiB
Duration : 22 min 33 s
Overall bit rate : 6 580 kb/s
Encoded date : UTC 2020-02-29 16:07:30
Writing application : mkvmerge v43.0.0 ('The Quartermaster') 64-bit
Writing library : libebml v1.3.10 + libmatroska v1.5.2
Video
ID : 1
Format : AVC
Format/Info : Advanced Video Codec
Format profile : [email protected]
Format settings : CABAC / 2 Ref Frames
Format settings, CABAC : Yes
Format settings, Reference frames : 2 frames
Codec ID : V_MPEG4/ISO/AVC
Duration : 22 min 33 s
Bit rate mode : Constant
Bit rate : 6 464 kb/s
Width : 1 280 pixels
Height : 720 pixels
Display aspect ratio : 16:9
Frame rate mode : Constant
Frame rate : 59.940 (60000/1001) FPS
Standard : Component
Color space : YUV
Chroma subsampling : 4:2:0
Bit depth : 8 bits
Scan type : Progressive
Bits/(Pixel*Frame) : 0.117
Stream size : 1.02 GiB (98%)
Default : Yes
Forced : No
Color range : Limited
Color primaries : BT.709
Transfer characteristics : BT.709
Matrix coefficients : BT.709
Audio
ID : 2
Format : AAC LC
Format/Info : Advanced Audio Codec Low Complexity
Codec ID : A_AAC-2
Duration : 22 min 33 s
Bit rate : 125 kb/s
Channel(s) : 2 channels
Channel layout : L R
Sampling rate : 48.0 kHz
Frame rate : 46.875 FPS (1024 SPF)
Compression mode : Lossy
Delay relative to video : -2 ms
Stream size : 20.2 MiB (2%)
Language : English
Default : Yes
Forced : No

Квалфикация

Дата/Год выпуска: 29.02.2020

Продолжительность

0:44:31

Скриншоты

MediaInfo

General
Unique ID : 231068124008309607000585495040436744626 (0xADD61A179110804C1DB07117915C31B2)
Complete name : F:\NXS_2020\NASCAR.Xfinity.Series.2020.R03.Production.Alliance.Group.300.Weekend.On.FOX.720P\03.NASCAR.Xfinity.Series.2020.R03.Production.Alliance.Group.300.Qualifying.FS1.720P.mkv
Format : Matroska
Format version : Version 4
File size : 2.05 GiB
Duration : 44 min 31 s
Overall bit rate : 6 592 kb/s
Encoded date : UTC 2020-03-01 00:23:31
Writing application : mkvmerge v43.0.0 ('The Quartermaster') 64-bit
Writing library : libebml v1.3.10 + libmatroska v1.5.2
Video
ID : 1
Format : AVC
Format/Info : Advanced Video Codec
Format profile : [email protected]
Format settings : CABAC / 2 Ref Frames
Format settings, CABAC : Yes
Format settings, Reference frames : 2 frames
Codec ID : V_MPEG4/ISO/AVC
Duration : 44 min 31 s
Bit rate mode : Constant
Bit rate : 6 464 kb/s
Width : 1 280 pixels
Height : 720 pixels
Display aspect ratio : 16:9
Frame rate mode : Constant
Frame rate : 59.940 (60000/1001) FPS
Standard : Component
Color space : YUV
Chroma subsampling : 4:2:0
Bit depth : 8 bits
Scan type : Progressive
Bits/(Pixel*Frame) : 0.117
Stream size : 2.01 GiB (98%)
Default : Yes
Forced : No
Color range : Limited
Color primaries : BT.709
Transfer characteristics : BT.709
Matrix coefficients : BT.709
Audio
ID : 2
Format : AAC LC
Format/Info : Advanced Audio Codec Low Complexity
Codec ID : A_AAC-2
Duration : 44 min 31 s
Bit rate : 125 kb/s
Channel(s) : 2 channels
Channel layout : L R
Sampling rate : 48.0 kHz
Frame rate : 46.875 FPS (1024 SPF)
Compression mode : Lossy
Delay relative to video : -8 ms
Stream size : 39.9 MiB (2%)
Language : English
Default : Yes
Forced : No

Гонка

Дата/Год выпуска: 29.02.2020

Продолжительность

2:47:27

Скриншоты

MediaInfo

General
Unique ID : 50474824869061364137792646061453217994 (0x25F9190097E0F95DF53475E2B28C10CA)
Complete name : F:\NXS_2020\NASCAR.Xfinity.Series.2020.R03.Production.Alliance.Group.300.Weekend.On.FOX.720P\04.NASCAR.Xfinity.Series.2020.R03.Production.Alliance.Group.300.Race.FS1.720P.mkv
Format : Matroska
Format version : Version 4
File size : 7.70 GiB
Duration : 2 h 47 min
Overall bit rate : 6 584 kb/s
Encoded date : UTC 2020-03-01 00:48:37
Writing application : mkvmerge v43.0.0 ('The Quartermaster') 64-bit
Writing library : libebml v1.3.10 + libmatroska v1.5.2
Video
ID : 1
Format : AVC
Format/Info : Advanced Video Codec
Format profile : [email protected]
Format settings : CABAC / 2 Ref Frames
Format settings, CABAC : Yes
Format settings, Reference frames : 2 frames
Codec ID : V_MPEG4/ISO/AVC
Duration : 2 h 47 min
Bit rate mode : Constant
Bit rate : 6 464 kb/s
Width : 1 280 pixels
Height : 720 pixels
Display aspect ratio : 16:9
Frame rate mode : Constant
Frame rate : 59.940 (60000/1001) FPS
Standard : Component
Color space : YUV
Chroma subsampling : 4:2:0
Bit depth : 8 bits
Scan type : Progressive
Bits/(Pixel*Frame) : 0.117
Stream size : 7.55 GiB (98%)
Default : Yes
Forced : No
Color range : Limited
Color primaries : BT.709
Transfer characteristics : BT.709
Matrix coefficients : BT.709
Audio
ID : 2
Format : AAC LC
Format/Info : Advanced Audio Codec Low Complexity
Codec ID : A_AAC-2
Duration : 2 h 47 min
Bit rate : 125 kb/s
Channel(s) : 2 channels
Channel layout : L R
Sampling rate : 48.0 kHz
Frame rate : 46.875 FPS (1024 SPF)
Compression mode : Lossy
Delay relative to video : -18 ms
Stream size : 150 MiB (2%)
Language : English
Default : Yes
Forced : No

If your ratio falls below 0.3, you will not be able to download Torrents! More about the rating.

[erzsebet.pl].t1001694.torrent
Torrent: Registered   [ 2020-08-01 15:34 ]

Download .torrent

Download

129 KB

Status: checked
Completed: 16 times
Size: 12.74 GB
terms.php

#1

01-Aug-2020 15:33

[Profile]  [PM] 
Display posts:    

You cannot post new topics in this forum
You cannot reply to topics in this forum
You cannot edit your posts in this forum
You cannot delete your posts in this forum
You cannot vote in polls in this forum
You cannot attach files in this forum
You can download files in this forum
User agreement
For copyright holders
Advertise on this site

Скачайте на халяву через торрент на трекере erzsebet.pl

!ATTENTION!
The site does not give electronic versions of products, and is engaged only in a collecting and cataloguing of the references sent and published at a forum by our readers. If you are the legal owner of any submitted material and do not wish that the reference to it was in our catalogue, contact us and we shall immediately remove her. Files for an exchange on tracker are given by users of a site, and the administration does not bear the responsibility for their maintenance. The request to not fill in the files protected by copyrights, and also files of the illegal maintenance!