Навеки женщина / Forever Female (Ирвинг Раппер / Irving Rapper) [1953, США, драма, HDRip] VO + Original Eng

DL-List and Torrent activity
Size:  1.58 GB   |    Registered:  2 years 9 months   |    Completed:  16 times
Seeders:  6   Leechers:  2   Show peers in full details
 
   
 
 

erzsebet.org ®

Longevity:
2 years 9 months
Posts:
47596

[Quote] 

Навеки женщина / Forever Female
Страна: США
Студия: Paramount Pictures
Жанр: драма
Год выпуска: 1953
Продолжительность: 01:33:56
Перевод: Одноголосый закадровый - Юрий Медведев
Субтитры: нет
Оригинальная аудиодорожка: английский
Режиссер: Ирвинг Раппер / Irving Rapper
Композитор: Виктор Янг / Victor Young
В ролях: Джинджер Роджерс / Ginger Rogers ... Beatrice Page
Уильям Холден / William Holden ... Stanley Krown
Пол Дуглас / Paul Douglas ... E. Harry Phillips
Пэт Краули / Pat Crowley ... Clara Mootz aka Sally Carver
Джеймс Глисон / James Gleason ... Eddie Woods
Джесси Уайт / Jesse White ... Willie Wolfe

Марджори Рэмбо / Marjorie Rambeau ... Older Actress at Bar
Джордж Ривз / George Reeves ... George Courtland
Кинг Донован / King Donovan ... Playwright
Вик Перрин / Vic Perrin ... Scenic Designer
Расселл Гейдж / Russell Gaige ... Theatrical Producer
Мэрион Росс / Marion Ross (в титрах: Marian Ross) ... Patty
Ричард Шеннон / Richard Shannon ... Richard Shannon - Stage Manager

Описание: По мотивам пьесы Дж. М. Барри “Розалинда”.
Драматург Стэнли Краун сочинил новую потрясающую пьесу, в которой главными персонажами являются мать и 19-летняя дочь. В образе матери он видит звезду Бродвея Беатрис Пейдж. Все считают, что эта постановка поможет карьере Беатрис после последнего театрального провала. Вся проблема в том, что Беатрис не желает принять свой возраст и отказывается от возрастной роли матери. Она желает сыграть роль дочери, совершенно игнорируя тот факт, что в подобных ролях могла бы быть хороша, но лет двадцать назад. К тому же роли дочери очень активно добивается молодая провинциальная актриса Салли Карвер...
Золотой глобус, 1954 год
Победитель (1):
Премия лучшей дебютантке ( Пэт Краули )--Фильмография Джинджер Роджерс--Фильмография Уильяма Холдена--БОЛЬШОЕ СПАСИБО:
Работа со звуком - AlekceyR76
Перевод и озвучивание фильма - Юрий Медведев
Также Большое Спасибо всем, кто принял участие в появлении перевода и озвучки к этому фильму:
Lafajet, Магда, jasenka, yanaelisa, HippopotamusIV, cementit, sindzi, борюська, Ugo927, old76, duum100, voostorg, surzhoks, митя, spartakeynoir, GalaUkr, Лямдазонд, sapog1960, mumzik69, елена 22, leoder
--Сэмпл: https://www.sendspace.com/file/207cz6
Качество видео: HDRip
Формат видео: AVI
Видео: XviD, 720x528 (1.36:1), 23.976 fps, 2017 Kbps
Аудио 1: AC3, 48.0 KHz, 1 ch., 192 Kbps (русский одноголосый закадровый перевод) - Юрий Медведев
Аудио 2: AC3, 48.0 KHz, 1 ch., 192 Kbps (оригинальная английская звуковая дорожка, лежит отдельно)
Как подключить альтернативную (внешнюю) звуковую дорожку к видео при просмотре?
Как добавить отдельно лежащую аудиодорожку в .avi - файл? (см. "Программы для работы с контейнерами" - > "VirtualDub" или "AVI-Mux")

MediaInfo

AVI-файл:
Общее
Полное имя : F:\РАЗДАЧИ\Forever Female 1953\Forever Female.avi
Формат : AVI
Формат/Информация : Audio Video Interleave
Размер файла : 1,46 Гбайт
Продолжительность : 1 ч. 33 м.
Общий поток : 2218 Кбит/сек
Программа кодирования : VirtualDubMod 1.5.10.3 | www.virtualdub-fr.org || (build 2550/release)
Библиотека кодирования : VirtualDubMod build 2550/release
Видео
Идентификатор : 0
Формат : MPEG-4 Visual
Профиль формата : Advanced [email protected]
Параметр BVOP формата : 2
Параметр QPel формата : Нет
Параметр GMC формата : Без точки перехода
Параметр матрицы формата : Default (H.263)
Идентификатор кодека : DX50
Идентификатор кодека/Подсказка : DivX 5
Продолжительность : 1 ч. 33 м.
Битрейт : 2017 Кбит/сек
Ширина : 720 пикселей
Высота : 528 пикселей
Соотношение сторон : 4:3
Частота кадров : 23,976 (24000/1001) кадра/сек
Частота кадров в оригинале : 23,976 (23976/1000) кадра/сек
Цветовое пространство : YUV
Субдискретизация насыщенности : 4:2:0
Битовая глубина : 8 бит
Тип развёртки : Прогрессивная
Метод сжатия : С потерями
Бит/(Пиксели*Кадры) : 0.221
Размер потока : 1,32 Гбайт (91%)
Библиотека кодирования : XviD 73
Аудио
Идентификатор : 1
Формат : AC-3
Формат/Информация : Audio Coding 3
Параметр Endianness формата : Big
Идентификатор кодека : 2000
Продолжительность : 1 ч. 33 м.
Вид битрейта : Постоянный
Битрейт : 192 Кбит/сек
Каналы : 1 канал
Расположение каналов : Front: C
Частота : 48,0 КГц
Частота кадров : 31,250 кадров/сек (1536 spf)
Битовая глубина : 16 бит
Метод сжатия : С потерями
Размер потока : 129 Мбайт (9%)
Выравнивание : Разделение по промежуткам
Продолжительность промежутка : 42 мс. (1,00 видеокадр)
Время предзагрузки промежутка : 500 мс.
ServiceKind/String : Complete Main
английская оригинальная звуковая дорожка, лежит отдельно:
Общее
Полное имя : F:\РАЗДАЧИ\Forever Female 1953\Forever Female.ENG.ac3
Формат : AC-3
Формат/Информация : Audio Coding 3
Размер файла : 129 Мбайт
Продолжительность : 1 ч. 33 м.
Режим общего битрейта : Постоянный
Общий поток : 192 Кбит/сек
Аудио
Формат : AC-3
Формат/Информация : Audio Coding 3
Параметр Endianness формата : Big
Продолжительность : 1 ч. 33 м.
Вид битрейта : Постоянный
Битрейт : 192 Кбит/сек
Каналы : 1 канал
Расположение каналов : Front: C
Частота : 48,0 КГц
Частота кадров : 31,250 кадров/сек (1536 spf)
Битовая глубина : 16 бит
Метод сжатия : С потерями
Размер потока : 129 Мбайт (100%)
ServiceKind/String : Complete Main

If your ratio falls below 0.3, you will not be able to download Torrents! More about the rating.

[erzsebet.pl].t101.torrent
Torrent: Registered   [ 2017-12-02 16:06 ]

Download .torrent

Download

16 KB

Status: checked
Completed: 16 times
Size: 1.58 GB
terms.php

#1

02-Dec-2017 16:06

[Profile]  [PM] 
Display posts:    

You cannot post new topics in this forum
You cannot reply to topics in this forum
You cannot edit your posts in this forum
You cannot delete your posts in this forum
You cannot vote in polls in this forum
You cannot attach files in this forum
You can download files in this forum
User agreement
For copyright holders
Advertise on this site

Скачайте на халяву через торрент на трекере erzsebet.pl

!ATTENTION!
The site does not give electronic versions of products, and is engaged only in a collecting and cataloguing of the references sent and published at a forum by our readers. If you are the legal owner of any submitted material and do not wish that the reference to it was in our catalogue, contact us and we shall immediately remove her. Files for an exchange on tracker are given by users of a site, and the administration does not bear the responsibility for their maintenance. The request to not fill in the files protected by copyrights, and also files of the illegal maintenance!