Заговор «Параллакс» / Винтовка с оптическим прицелом / The Parallax View (Алан Джей Пакула / Alan J. Pakula) [1974, США, драма, триллер, WEB-DLRip] MVO (НТВ+) + DVO + Sub Eng + Original Eng

Reply to topic
DL-List and Torrent activity
Size:  1.73 GB   |    Registered:  3 years 3 months   |    Completed:  16 times

Seeder not seen: 3 years 3 months

 
   
 
 
Author Message

erzsebet.org ®

Longevity: 3 years 2 months

Posts: 47596

Post 02-Dec-2017 16:06

[Quote]

Заговор «Параллакс» / Винтовка с оптическим прицелом / The Parallax View
Страна: США
Жанр: драма, триллер
Год выпуска: 1974
Продолжительность: 01:42:05
Перевод: Профессиональный (многоголосый закадровый) - НТВ+ (Людмила Гнилова, Александ Котов, Александр Белый)
Перевод: Профессиональный (двухголосый закадровый) - Всеволод Кузнецов и Людмила Ильина
Субтитры: английские
Оригинальная аудиодорожка: английский
Режиссер: Алан Джей Пакула / Alan J. Pakula
В ролях: Уоррен Битти, Пола Прентисс, Уильям Дэниелс, Уолтер МакДжинн, Хьюм Кронин, Келли Тордсэн, Чак Уотерс, Эрл Хиндмэн, Уильям Джойс, Бетти Мюррэй, Билл МакКинни, Джо Энн Харрис, Тэд Геринг, Ли Пулфорд, Дория Кук-Нельсон, Джим Дэвис, Джоан Леммо, Кеннет Марс, Уильям Джордан, Эдвард Уинтер, Стэйси Кич ст., Форд Рейни, Альма Бельтран, Ричард Булл, Сюзанн Кохейн, Ронда Копланд, Джо Ди Реда, Пэтси Гаррет, Пенелопа Джиллетт, Роберт П. Либ, Уильям Свон, Джон С. Рэйджин, Вернон Уиддл, Крэйг Р. Бэксли, Стив Келли, Энтони Цербе
Описание: По роману Лорен Сингер. Репортер Джо Фрэйди случайно оказался одним из свидетелей убийства политического деятеля. Когда остальные семь очевидцев преступления один за другим умирают при загадочных обстоятельствах, наш герой начинает сомневаться в истинности официальной версии, гласящей, что убийство - дело рук одиночки-психопата. Джо начинает мерещиться целая группировка высококлассных натренированных киллеров. Но все ночные кошмары Фрейди бледнеют перед жуткой истиной, до которой ему предстоит докопаться.
Качество видео: WEB-DLRip
Формат видео: AVI
Видео: 720x304 (2.37:1), 23.976 fps, XviD build 73 ~1839 kbps avg, 0.35 bit/pixel
Аудио: 48 kHz, AC3 Dolby Digital, 2/0 (L,R) ch, ~192 kbps - многоголосый
отдельными файлами:
Аудио: 48 kHz, AC3 Dolby Digital, 2/0 (L,R) ch, ~192 kbps - двухголосый
Аудио: 48 kHz, AC3 Dolby Digital, 2/0 (L,R) ch, ~192 kbps - оригинал
Формат субтитров: softsub (SRT)

MediaInfo

General
Complete name : H:\The.Parallax.View.1974.web-dlrip_[1.46]_[teko]\The.Parallax.View.1974.web-dlrip_[1.46].avi
Format : AVI
Format/Info : Audio Video Interleave
File size : 1.46 GiB
Duration : 1h 42mn
Overall bit rate : 2 041 Kbps
Writing application : VirtualDubMod 1.5.10.3 | www.virtualdub-fr.org || (build 2550/release)
Writing library : VirtualDubMod build 2550/release
Video
ID : 0
Format : MPEG-4 Visual
Format profile : Advanced [email protected]
Format settings, BVOP : 2
Format settings, QPel : No
Format settings, GMC : No warppoints
Format settings, Matrix : Custom
Codec ID : XVID
Codec ID/Hint : XviD
Duration : 1h 42mn
Bit rate : 1 840 Kbps
Width : 720 pixels
Height : 304 pixels
Display aspect ratio : 2.35:1
Frame rate : 23.976 (23976/1000) fps
Color space : YUV
Chroma subsampling : 4:2:0
Bit depth : 8 bits
Scan type : Progressive
Compression mode : Lossy
Bits/(Pixel*Frame) : 0.351
Stream size : 1.31 GiB (90%)
Writing library : XviD 73
Audio
ID : 1
Format : AC-3
Format/Info : Audio Coding 3
Mode extension : CM (complete main)
Format settings, Endianness : Big
Codec ID : 2000
Duration : 1h 42mn
Bit rate mode : Constant
Bit rate : 192 Kbps
Channel(s) : 2 channels
Channel positions : Front: L R
Sampling rate : 48.0 KHz
Frame rate : 31.250 fps (1536 spf)
Compression mode : Lossy
Stream size : 140 MiB (9%)
Alignment : Split accross interleaves
Interleave, duration : 42 ms (1.00 video frame)
Interleave, preload duratio : 500 ms
Релиз группы:
--
[erzsebet.pl].t106.torrent
Torrent: Registered [ 2017-12-02 16:06 ] · 80484BD53DF568882F390D2C662CEDA4A604A3BA

Download .torrent

Download

18 KB

Status: checked
Completed: 16 times
Size: 1.73 GB
terms.php
[Profile] [PM]
Display posts:    
Reply to topic

Current time is: 05-Mar 03:22

All times are UTC ± 0



You cannot post new topics in this forum
You cannot reply to topics in this forum
You cannot edit your posts in this forum
You cannot delete your posts in this forum
You cannot vote in polls in this forum
You cannot attach files in this forum
You can download files in this forum