Бассейн / La piscine (Жак Дере / Jacques Deray) [1969, Италия, Франция, драма, мелодрама, криминал, HDRip] DVO (REN-TV)

DL-List and Torrent activity
Size:  1.46 GB   |    Registered:  2 years 9 months   |    Completed:  16 times
Seeders:  7  
 
   
 
 

erzsebet.org ®

Longevity:
2 years 9 months
Posts:
47596

[Quote] 

Бассейн / La piscine-Такими мы их ещё не видели.
Ален Делон и Роми Шнайдер - любовники в жизни и на экране.
- Год выпуска: 1969
Страна: Италия, Франция
Жанр: драма, мелодрама, криминал
Продолжительность: 02:02:23
Перевод: Профессиональный (двухголосый закадровый) - REN-TV
Субтитры: нет
Режиссер: Жак Дере / Jacques Deray
В ролях: Ален Делон / Jean-Paul, Роми Шнайдер / Marianne, Морис Роне / Harry, Джейн Биркин / Pénélope, Поль Кроше / L'inspecteur Lévêque, Сюзи Жаспар / Emilie, Мэддли Бейми / La mulâtre qui danse, Тьерри Шабер / Un ami, Стив Экхардт / Fred-Мировая премьера: 31 января 1969-Описание: Жан-Поль и Марианна проводят отпуск на вилле в Сен-Тропе. К ним в гости приезжает бывший любовник Марианны по имени Гарри со своей дочерью. Эксцентричный эгоист Жан-Поль оказывает недвусмысленные знаки внимания молодой девушке, приводя в бешенство отца. Страсти накаляются, и однажды вечером Жан-Поль подпаивает Гарри у кромки бассейна. Случайное падение в воду, не протянутая рука, и соперник мертв. А вскоре на виллу приезжает полицейский следователь, который не верит в несчастный случай.-Огромная благодарность:
SolarOlya - видеоряд
клм-фтс - личная запись фильма с телеканала REN-TV через видеомагнитофон и оцифровка звука с видеокассеты.
JUSTKANT - синхронизация перевода.-ДАННЫЙ ПЕРЕВОД НА ТРЕКЕРЕ ПОЯВЛЯЕТСЯ ВПЕРВЫЕ!
На русский язык фильм озвучен телекомпанией REN-TV.
Текст читают Владимир Герасимов и Елена Соловьёва.-
Рейтинг
-Качество видео: HDRip
Формат видео: AVI -> //Сэмпл//
Видео: XviD, 720x432 (5:3), 24.000 fps, 1507 kbps
Аудио:
1 - 48 khz, AC3 Dolby Digital, 2/0 (L,R) ch, ~192 kbps [REN-TV] VHSRip-ТВ

Информация о переводе

К сожалению, по неизвестной причине во время ТВ-записи был пропущен вот этот эпизод:
01:18:43 – 01:20:18
Поэтому здесь вставка дубляжа.

MediaInfo

General
Complete name : D:\Бассейн (REN-TV).avi
Format : AVI
Format/Info : Audio Video Interleave
File size : 1.46 GiB
Duration : 2 h 2 min
Overall bit rate : 1 708 kb/s
Movie name : Бассейн / La piscine (REN-TV)
Director : JUSTKANT
Copyright : На русский язык фильм озвучен телекомпанией REN-TV
Comment : Качество звука: VHSRipТВ (клм-фтс)
Video
ID : 0
Format : MPEG-4 Visual
Format profile : Advanced [email protected]
Format settings, BVOP : 2
Format settings, QPel : No
Format settings, GMC : No warppoints
Format settings, Matrix : Default (H.263)
Codec ID : XVID
Codec ID/Hint : XviD
Duration : 2 h 2 min
Bit rate : 1 507 kb/s
Width : 720 pixels
Height : 432 pixels
Display aspect ratio : 5:3
Frame rate : 24.000 FPS
Color space : YUV
Chroma subsampling : 4:2:0
Bit depth : 8 bits
Scan type : Progressive
Compression mode : Lossy
Bits/(Pixel*Frame) : 0.202
Stream size : 1.29 GiB (88%)
Writing library : XviD 1.2.1 (UTC 2008-12-04)
Audio
ID : 1
Format : AC-3
Format/Info : Audio Coding 3
Format settings, Endianness : Big
Codec ID : 2000
Duration : 2 h 2 min
Bit rate mode : Constant
Bit rate : 192 kb/s
Channel(s) : 2 channels
Channel positions : Front: L R
Sampling rate : 48.0 kHz
Frame rate : 31.250 FPS (1536 SPF)
Bit depth : 16 bits
Compression mode : Lossy
Stream size : 168 MiB (11%)
Alignment : Split accross interleaves
Interleave, duration : 42 ms (1.00 video frame)
Interleave, preload duratio : 500 ms
Title : REN-TV: Владимир Герасимов и Елена Соловьёва
Service kind : Complete Main

Скриншот c названием фильма

Скриншоты

If your ratio falls below 0.3, you will not be able to download Torrents! More about the rating.

[erzsebet.pl].t107.torrent
Torrent: Registered   [ 2017-12-02 16:06 ]

Download .torrent

Download

15 KB

Status: checked
Completed: 16 times
Size: 1.46 GB
terms.php

#1

02-Dec-2017 16:06

[Profile]  [PM] 
Display posts:    

You cannot post new topics in this forum
You cannot reply to topics in this forum
You cannot edit your posts in this forum
You cannot delete your posts in this forum
You cannot vote in polls in this forum
You cannot attach files in this forum
You can download files in this forum
User agreement
For copyright holders
Advertise on this site

Скачайте на халяву через торрент на трекере erzsebet.pl

!ATTENTION!
The site does not give electronic versions of products, and is engaged only in a collecting and cataloguing of the references sent and published at a forum by our readers. If you are the legal owner of any submitted material and do not wish that the reference to it was in our catalogue, contact us and we shall immediately remove her. Files for an exchange on tracker are given by users of a site, and the administration does not bear the responsibility for their maintenance. The request to not fill in the files protected by copyrights, and also files of the illegal maintenance!