Дьявольски ваш / Diaboliquement vôtre (Жюльен Дювивье / Julien Duvivier) [1967, Италия, Франция, ФРГ, триллер, драма, криминал, DVDRip] MVO (Россия)

Reply to topic
DL-List and Torrent activity
Size:  1.36 GB   |    Registered:  3 years 3 months   |    Completed:  16 times

Seeder not seen: 3 years 3 months

 
   
 
 
Author Message

erzsebet.org ®

Longevity: 3 years 2 months

Posts: 47596

Post 02-Dec-2017 16:06

[Quote]

Дьявольски ваш / Diaboliquement vôtre
Год выпуска: 1967
Страна: Италия, Франция, Германия (ФРГ)
Жанр: триллер, драма, криминал
Продолжительность: 01:28:51
Перевод: Профессиональный (многоголосый закадровый) - Россия
Субтитры: нет
Режиссер: Жюльен Дювивье / Julien Duvivier
В ролях: Ален Делон (Pierre Lagrange / Georges Campo), Зента Бергер / Christiane, Петер Мосбахер / Kim, Клод Пьеплю / Le décorateur, Рената Бирго / L'infirmière, Жорж Монтан / Le brigadier, Серджо Фантони / Freddie-Мировая премьера: 22 декабря 1967-Описание: Пьер попадает в автокатастрофу. Одним из последствий этого несчастья для него становится полная амнезия. Пьеру буквально заново приходится складывать мозаику своей жизни из немногочисленных воспоминаний, рассказов жены и семейного доктора. Однако истории супруги и врача представляются Пьеру до ужаса неправдоподобными, странными, нелепыми и удивительными. Старый особняк, бизнес в Гонконге - ничто не кажется ему знакомым, не сходится с его собственными ощущениями. Пьеру начинает казаться, что он стал жертвой настоящего заговора. Его самые худшие подозрения оправдываются...-Огромная благодарность:
teko - видеоряд
pasific2013 - личная запись фильма с телеканала Россия через видеомагнитофон и оцифровка звука с видеокассеты.
JUSTKANT - синхронизация перевода.-ДАННЫЙ ПЕРЕВОД НА ТРЕКЕРЕ ПОЯВЛЯЕТСЯ ВПЕРВЫЕ!
На русский язык фильм озвучен по заказу телеканала "Россия" в 2005 году.
Текст читают Андрей Казанцев, Владимир Конкин и Ольга Сирина.-
Рейтинг
-Качество видео: DVDRip
Формат видео: AVI -> //Сэмпл//
Видео: XviD, 656x400 (16:10), 25.000 fps, 1951 kbps
Аудио:
1 - 48 khz, AC3 Dolby Digital, 2/0 (L,R) ch, ~224 kbps [Россия] VHSRip-ТВ

Информация о переводе

К большому сожалению, перевод начинается не с начала, а только с 00:04:36.
До этого идёт перевод из трекера.

MediaInfo

General
Complete name : D:\Дьявольски ваш (Россия).avi
Format : AVI
Format/Info : Audio Video Interleave
File size : 1.36 GiB
Duration : 1 h 28 min
Overall bit rate : 2 185 kb/s
Movie name : Дьявольски ваш / Diaboliquement votre (Россия)
Director : JUSTKANT
Writing application : VirtualDubMod 1.5.10.3 (build 2550/release)
Copyright : На русский язык фильм озвучен по заказу телеканала "Россия" в 2005 году
Comment : Качество звука: VHSRipТВ (pasific2013)
Video
ID : 0
Format : MPEG-4 Visual
Format profile : Advanced [email protected]
Format settings, BVOP : 1
Format settings, QPel : No
Format settings, GMC : No warppoints
Format settings, Matrix : Custom
Codec ID : XVID
Codec ID/Hint : XviD
Duration : 1 h 28 min
Bit rate : 1 951 kb/s
Width : 656 pixels
Height : 400 pixels
Display aspect ratio : 16:10
Frame rate : 25.000 FPS
Color space : YUV
Chroma subsampling : 4:2:0
Bit depth : 8 bits
Scan type : Progressive
Compression mode : Lossy
Bits/(Pixel*Frame) : 0.297
Stream size : 1.21 GiB (89%)
Writing library : XviD 73
Audio
ID : 1
Format : AC-3
Format/Info : Audio Coding 3
Format settings, Endianness : Big
Codec ID : 2000
Duration : 1 h 28 min
Bit rate mode : Constant
Bit rate : 224 kb/s
Channel(s) : 2 channels
Channel positions : Front: L R
Sampling rate : 48.0 kHz
Frame rate : 31.250 FPS (1536 SPF)
Bit depth : 16 bits
Compression mode : Lossy
Stream size : 142 MiB (10%)
Alignment : Split accross interleaves
Interleave, duration : 40 ms (1.00 video frame)
Interleave, preload duratio : 500 ms
Title : РОССИЯ: Андрей Казанцев, Владимир Конкин и Ольга Сирина
Service kind : Complete Main

Скриншот c названием фильма

Скриншоты

[erzsebet.pl].t109.torrent
Torrent: Registered [ 2017-12-02 16:06 ] · 44F233806B8B7C95537C1887ACF6962F93733E8D

Download .torrent

Download

14 KB

Status: checked
Completed: 16 times
Size: 1.36 GB
terms.php
[Profile] [PM]
Display posts:    
Reply to topic

Current time is: 07-Mar 23:45

All times are UTC ± 0



You cannot post new topics in this forum
You cannot reply to topics in this forum
You cannot edit your posts in this forum
You cannot delete your posts in this forum
You cannot vote in polls in this forum
You cannot attach files in this forum
You can download files in this forum