Янко / Yanco (Сервандо Гонсалес / Servando Gonzalez) [1961, Мексика, драма, VHSRip] VO + Sub Rus + Original

Reply to topic
DL-List and Torrent activity
Size:  1.31 GB   |    Registered:  3 years 3 months   |    Completed:  16 times

Seeder not seen: 3 years 3 months

 
   
 
 
Author Message

erzsebet.org ®

Longevity: 3 years 2 months

Posts: 47596

Post 02-Dec-2017 16:06

[Quote]

Янко / Yanco
Страна: Мексика
Жанр: драма
Год выпуска: 1961
Продолжительность: 01:32:04
Перевод: Одноголосый закадровый
Субтитры: русские
Оригинальная аудиодорожка: науатль (диалект)
Режиссер: Сервандо Гонсалес / Servando Gonzalez
В ролях: Рикардо Анкона / Ricardo Ancona, Хесус Медина / Jesus Medina, Мария Бустаманте / Maria Bustamante
Описание: Вдова Мария воспитывает единственного сына Хуана и хочет, чтоб он стал таким же сильным и мужественным воином, как и его отец. Хуанито прекрасно учится, но одноклассники подтрунивают над ним, поскольку он очень чувствителен к резким звукам и к шуму. Мальчик вынужден убегать из села на природу. Его тонкий музыкальный слух ищет гармонии. Как-то раз он слышит, как старый скрипач играет на скрипке, и сродство душ сближает их. В то время, пока Хуанито из-за болезни матери неотлучно находится дома, старый скрипач умирает, а его скрипка с логотипом «ЯНКО» оказывается выставленной на продажу в лавке дона Аркадио. Мальчик несколько раз поздно вечером тайком берёт скрипку из лавки, играет на ней ночью вдали от села, а к утру возвращает её на место. Суеверные же сельчане уверены, что это всё проделки умершего скрипача…
Сэмпл: http://multi-up.com/1175117
Качество видео: VHSRip
Формат видео: AVI
Видео: 576x432 (1.33:1), 29.970 fps, XviD build 67 ~1758 kbps avg, 0.23 bit/pixel
Аудио 1: 48 kHz, MPEG Layer 3, 2 ch, ~128.00 kbps avg(русский)
Аудио 2: 48 kHz, MPEG Layer 3, 2 ch, ~128.00 kbps avg(науатль)
Формат субтитров: softsub (SRT)
Доп. информация о субтитрах: Русские внешние (Тарас Котов)

MediaInfo

Общее
Полное имя : F:\С моей озвучкой\Янко\Yanco.1961.avi
Формат : AVI
Формат/Информация : Audio Video Interleave
Размер файла : 1,31 Гбайт
Продолжительность : 1 ч. 32 м.
Общий поток : 2033 Кбит/сек
Программа кодирования : VirtualDubModRus 1.5.10.2 (build 2542/release)
Библиотека кодирования : VirtualDubMod build 2542/release
Видео
Идентификатор : 0
Формат : MPEG-4 Visual
Профиль формата : Advanced [email protected]
Параметр BVOP формата : 2
Параметр QPel формата : Нет
Параметр GMC формата : Без точки перехода
Параметр матрицы формата : Default (H.263)
Идентификатор кодека : XVID
Идентификатор кодека/Подсказка : XviD
Продолжительность : 1 ч. 32 м.
Битрейт : 1760 Кбит/сек
Ширина : 576 пикселей
Высота : 432 пикселя
Соотношение сторон : 4:3
Частота кадров : 29,970 (30000/1001) кадров/сек
Цветовое пространство : YUV
Субдискретизация насыщенности : 4:2:0
Битовая глубина : 8 бит
Тип развёртки : Прогрессивная
Метод сжатия : С потерями
Бит/(Пиксели*Кадры) : 0.236
Размер потока : 1,13 Гбайт (87%)
Библиотека кодирования : XviD 67
Аудио #1
Идентификатор : 1
Формат : MPEG Audio
Версия формата : Version 1
Профиль формата : Layer 3
Режим : Joint stereo
Расширение режима : MS Stereo
Идентификатор кодека : 55
Идентификатор кодека/Подсказка : MP3
Продолжительность : 1 ч. 31 м.
Вид битрейта : Постоянный
Битрейт : 128 Кбит/сек
Каналы : 2 канала
Частота : 48,0 КГц
Метод сжатия : С потерями
Размер потока : 84,2 Мбайт (6%)
Выравнивание : Соединение по промежуткам
Продолжительность промежутка : 33 мс. (1,00 видеокадр)
Время предзагрузки промежутка : 504 мс.
Библиотека кодирования : LAME3.96
Аудио #2
Идентификатор : 2
Формат : MPEG Audio
Версия формата : Version 1
Профиль формата : Layer 3
Режим : Joint stereo
Расширение режима : MS Stereo
Идентификатор кодека : 55
Идентификатор кодека/Подсказка : MP3
Продолжительность : 1 ч. 32 м.
Вид битрейта : Постоянный
Битрейт : 128 Кбит/сек
Каналы : 2 канала
Частота : 48,0 КГц
Метод сжатия : С потерями
Размер потока : 84,3 Мбайт (6%)
Выравнивание : Соединение по промежуткам
Продолжительность промежутка : 33 мс. (1,00 видеокадр)
Время предзагрузки промежутка : 504 мс.
Библиотека кодирования : LAME3.98

Скриншоты

[erzsebet.pl].t111.torrent
Torrent: Registered [ 2017-12-02 16:06 ] · 60EAE6E017A568A27524A983E15E9A62A3C254E8

Download .torrent

Download

14 KB

Status: checked
Completed: 16 times
Size: 1.31 GB
terms.php
[Profile] [PM]
Display posts:    
Reply to topic

Current time is: 03-Mar 11:18

All times are UTC ± 0



You cannot post new topics in this forum
You cannot reply to topics in this forum
You cannot edit your posts in this forum
You cannot delete your posts in this forum
You cannot vote in polls in this forum
You cannot attach files in this forum
You can download files in this forum