Звезда / Star! (Роберт Уайз / Robert Wise) [1968, США, мюзикл, драма, мелодрама, комедия, биография, DVDRip] MVO (Культура) + Original Eng

DL-List and Torrent activity
Size:  2.18 GB   |    Registered:  2 years 9 months   |    Completed:  16 times
Seeders:  7  
 
   
 
 

erzsebet.org ®

Longevity:
2 years 9 months
Posts:
47596

[Quote] 

Звезда / Star!
Страна: США
Жанр: мюзикл, драма, мелодрама, комедия, биография
Год выпуска: 1968
Продолжительность: 02:53:01
Перевод: Профессиональный (многоголосый закадровый) студия "СВ Дубль" по заказу ГТРК "Культура"
Субтитры: нет
Оригинальная аудиодорожка: английский
Режиссер: Роберт Уайз / Robert Wise
В ролях: Джули Эндрюс
Ричард Кренна
Майкл Крэйг
Дэниел Мэсси
Роберт Рид
Брюс Форсайт
Берил Рид
Джон Коллин
Алан Оппенхаймер
Ричард Карлан
Описание: Британская актриса Гертруда Лоуренс — самое прекрасное и чарующее создание из всех, выходивших на сцену мюзик-холла в первой половине XX века. Люди хотели веселья и в «безумные 1920-е», и «депрессивные 1930-е». Звезда дарила публике свой свет, получая взамен ее любовь…
Сэмпл: http://multi-up.com/1024220
Качество видео: DVDRip
Формат видео: AVI
Видео: MPEG4, XviD, 720x320 (2.25), 23.976 fps, 1 145 Kbps (0.207 bit/pixel)
Аудио: AC-3, 48.0 KHz, 2 ch, 192 Kbps, CBR - русский
Аудио 2: AC-3, 48.0 KHz, 5 ch, 448 Kbps, CBR - английский

MediaInfo

Общее
Полное имя : K:\Звезда.avi
Формат : AVI
Формат/Информация : Audio Video Interleave
Профиль формата : OpenDML
Размер файла : 2,18 Гбайт
Продолжительность : 2 ч. 53 м.
Общий поток : 1803 Кбит/сек
Название фильма : Звезда / Stat! (1968)
Программа кодирования : VirtualDubMod 1.5.10.2 (build 2540/release)
Библиотека кодирования : VirtualDubMod build 2540/release
Правообладатель : miha2154
Видео
Идентификатор : 0
Формат : MPEG-4 Visual
Профиль формата : Advanced [email protected]
Параметр BVOP формата : 1
Параметр QPel формата : Нет
Параметр GMC формата : Без точки перехода
Параметр матрицы формата : Выборочная
Идентификатор кодека : XVID
Идентификатор кодека/Подсказка : XviD
Продолжительность : 2 ч. 53 м.
Битрейт : 1145 Кбит/сек
Ширина : 720 пикселей
Высота : 320 пикселей
Соотношение сторон : 2,25:1
Частота кадров : 23,976 кадра/сек
Цветовое пространство : YUV
Субдискретизация насыщенности : 4:2:0
Битовая глубина : 8 бит
Тип развёртки : Прогрессивная
Метод сжатия : С потерями
Бит/(Пиксели*Кадры) : 0.207
Размер потока : 1,38 Гбайт (63%)
Библиотека кодирования : XviD 65
Аудио #1
Идентификатор : 1
Формат : AC-3
Формат/Информация : Audio Coding 3
Расширение режима : CM (complete main)
Параметр Endianness формата : Big
Идентификатор кодека : 2000
Продолжительность : 2 ч. 53 м.
Вид битрейта : Постоянный
Битрейт : 192 Кбит/сек
Каналы : 2 канала
Расположение каналов : Front: L R
Частота : 48,0 КГц
Битовая глубина : 16 бит
Метод сжатия : С потерями
Размер потока : 238 Мбайт (11%)
Выравнивание : Разделение по промежуткам
Продолжительность промежутка : 42 мс. (1,00 видеокадр)
Время предзагрузки промежутка : 500 мс.
Заголовок : Профессиональный (многоголосый закадровый) Культура
Аудио #2
Идентификатор : 2
Формат : AC-3
Формат/Информация : Audio Coding 3
Расширение режима : CM (complete main)
Параметр Endianness формата : Big
Идентификатор кодека : 2000
Продолжительность : 2 ч. 53 м.
Вид битрейта : Постоянный
Битрейт : 448 Кбит/сек
Каналы : 6 каналов
Channel(s)_Original : 5 каналов
Расположение каналов : Front: L C R, Side: L R
Частота : 48,0 КГц
Битовая глубина : 16 бит
Метод сжатия : С потерями
Размер потока : 554 Мбайт (25%)
Выравнивание : Разделение по промежуткам
Продолжительность промежутка : 42 мс. (1,00 видеокадр)
Время предзагрузки промежутка : 500 мс.
Заголовок : Английский

Скриншоты

торрент перезалит 5.11.17 - исправлен дефект в русской дорожке

If your ratio falls below 0.3, you will not be able to download Torrents! More about the rating.

[erzsebet.pl].t112.torrent
Torrent: Registered   [ 2017-12-02 16:06 ]

Download .torrent

Download

11 KB

Status: checked
Completed: 16 times
Size: 2.18 GB
terms.php

#1

02-Dec-2017 16:06

[Profile]  [PM] 
Display posts:    

You cannot post new topics in this forum
You cannot reply to topics in this forum
You cannot edit your posts in this forum
You cannot delete your posts in this forum
You cannot vote in polls in this forum
You cannot attach files in this forum
You can download files in this forum
User agreement
For copyright holders
Advertise on this site

Скачайте на халяву через торрент на трекере erzsebet.pl

!ATTENTION!
The site does not give electronic versions of products, and is engaged only in a collecting and cataloguing of the references sent and published at a forum by our readers. If you are the legal owner of any submitted material and do not wish that the reference to it was in our catalogue, contact us and we shall immediately remove her. Files for an exchange on tracker are given by users of a site, and the administration does not bear the responsibility for their maintenance. The request to not fill in the files protected by copyrights, and also files of the illegal maintenance!