Маска Димитриоса / The Mask of Dimitrios (Жан Негулеско / Jean Negulesco) [1944, США, фильм-нуар, драма, криминал, детектив, DVDRip] Sub Rus + Original Eng

Reply to topic
DL-List and Torrent activity
Size:  699 MB   |    Registered:  3 years 3 months   |    Completed:  16 times

Seeder not seen: 3 years 3 months

 
   
 
 
Author Message

erzsebet.org ®

Longevity: 3 years 2 months

Posts: 47596

Post 02-Dec-2017 16:06

[Quote]

Маска Димитриоса / The Mask of Dimitrios
Страна: США
Студия: Warner Bros. Pictures
Жанр: фильм-нуар, драма, криминал, детектив
Год выпуска: 1944
Продолжительность: 01:35:39
Перевод: Субтитры
Субтитры: русские
Оригинальная аудиодорожка: английский
Режиссер: Жан Негулеско / Jean Negulesco
Композитор: Адольф Дойч / Adolph Deutsch
В ролях: Петер Лорре / Peter Lorre ... Cornelius Leyden
Сидни Гринстрит / Sydney Greenstreet ... Mr. Peters
Захари Скотт / Zachary Scott ... Dimitrios Makropoulos
Фэй Эмерсон / Faye Emerson ... Irana Preveza
Виктор Франсен / Victor Francen ... Wladislaw Grudek
Стивен Герэй / Steven Geray ... Karel Bulic
Флоранс Бэйтс / Florence Bates ... Madame Elise Chavez
Эдуардо Чианелли / Eduardo Ciannelli ... Marukakis
Курт Кэтч / Kurt Katch ... Colonel Haki
Марджори Хошелль / Marjorie Hoshelle ... Anna Bulic
Жорж Метакса / Georges Metaxa ... Hans Werner
Джон Эбботт / John Abbott ... Mr. Pappas
Монти Блу / Monte Blue ... Abdul Dhris

Описание: Экранизация романа Эрика Эмблера (Eric Ambler) "Гроб для Димитриоса".
Лейден, голландский писатель детективных романов, проводит отпуск в Стамбуле. На приеме он знакомится с одним из своих наиболее рьяных поклонников, полковником Хаки, главой тайной полиции, который сообщает ему, что тело известного преступника Димитриоса Макропулоса было выброшено на берег близлежащего пляжа. Преступник был зарезан. Лейдена поражает одержимость Хаки Макропулосом, человеком, который считал «убийство, предательство и обман» естественным образом жизни. Посетив морг и осмотрев тело, Лейден принимает решение написать роман об этом страшном человеке и начинает изучать его прошлое. И ему приходится столкнуться с умным и сложно спланированным варевом из шантажа, соблазнений, шпионских интриг, убийств и самоубийства.--Фильмография Петера Лорре--За русские субтитры спасибоСеверный, STICK24, Магда--Сэмпл: http://multi-up.com/1175071
Качество видео: DVDRip
Формат видео: AVI
Видео: XviD, 512x384 (1.33:1), 23.976 fps, 884 Kbps
Аудио: MP3, 48.0 KHz, 2 ch., 128 Kbps (оригинальная английская звуковая дорожка)

MediaInfo

Общее
Полное имя : I:\раздачи\The Mask of Dimitrios 1944 700MB\The Mask of Dimitrios.avi
Формат : AVI
Формат/Информация : Audio Video Interleave
Размер файла : 699 Мбайт
Продолжительность : 1 ч. 35 м.
Общий поток : 1021 Кбит/сек
Программа кодирования : VirtualDubMod 1.5.10.3 | www.virtualdub-fr.org || (build 2550/release)
Библиотека кодирования : VirtualDubMod build 2550/release
Видео
Идентификатор : 0
Формат : MPEG-4 Visual
Профиль формата : Advanced [email protected]
Параметр BVOP формата : 2
Параметр QPel формата : Нет
Параметр GMC формата : Без точки перехода
Параметр матрицы формата : Default (H.263)
Идентификатор кодека : DX50
Идентификатор кодека/Подсказка : DivX 5
Продолжительность : 1 ч. 35 м.
Битрейт : 884 Кбит/сек
Ширина : 512 пикселей
Высота : 384 пикселя
Соотношение сторон : 4:3
Частота кадров : 23,976 (24000/1001) кадра/сек
Цветовое пространство : YUV
Субдискретизация насыщенности : 4:2:0
Битовая глубина : 8 бит
Тип развёртки : Прогрессивная
Метод сжатия : С потерями
Бит/(Пиксели*Кадры) : 0.187
Размер потока : 605 Мбайт (87%)
Библиотека кодирования : XviD 73
Аудио
Идентификатор : 1
Формат : MPEG Audio
Версия формата : Version 1
Профиль формата : Layer 3
Идентификатор кодека : 55
Идентификатор кодека/Подсказка : MP3
Продолжительность : 1 ч. 35 м.
Вид битрейта : Постоянный
Битрейт : 128 Кбит/сек
Каналы : 2 канала
Частота : 48,0 КГц
Метод сжатия : С потерями
Размер потока : 87,6 Мбайт (13%)
Выравнивание : Соединение по промежуткам
Продолжительность промежутка : 42 мс. (1,00 видеокадр)
Время предзагрузки промежутка : 504 мс.
Библиотека кодирования : LAME3.99r
Настройки программы : -m s -V 4 -q 0 -lowpass 17 -b 128

Фрагмент русских субтитров

81
00:05:24,232 --> 00:05:27,621
Мой дорогой Лайден, Димитриос
никогда не пускал кровь сам.
82
00:05:27,903 --> 00:05:29,661
Такие как он никогда не рискуют.
83
00:05:29,686 --> 00:05:31,953
Они остаются за кулисами заговора.
84
00:05:32,028 --> 00:05:34,430
Но для меня самое важное
в наёмном убийстве - это
85
00:05:34,455 --> 00:05:36,663
не кто сделал выстрел, а
кто заплатил за пулю.
86
00:05:37,240 --> 00:05:38,045
Это верно.
87
00:05:38,693 --> 00:05:40,971
Насколько я знаю, ни одно
европейское правительство
88
00:05:40,996 --> 00:05:42,616
так никогда и не
поймало Димитриоса.
89
00:05:42,756 --> 00:05:44,365
В его досье нет даже фотографии.
90
00:05:44,413 --> 00:05:48,648
Но мы о нём знали, так же как о нём знали
в Афинах, в Софии, в Белграде, в Париже.
91
00:05:48,711 --> 00:05:51,140
Он был большим любителем
путешествовать, этот Димитриос.
92
00:05:51,460 --> 00:05:53,492
Был? Вы говорите так,
как будто он умер.
93
00:05:53,758 --> 00:05:54,828
О да, он мёртв.
94
00:05:54,867 --> 00:05:58,267
Его раздутое тело выбросило
на берег сегодня утром.
95
00:05:58,649 --> 00:06:01,859
Мы предполагаем, что его пырнули
ножом и бросили в Босфор.
96
00:06:02,334 --> 00:06:06,570
В таком случае, он умер насильственной
смертью. Это напоминает правосудие, не так ли?
97
00:06:07,047 --> 00:06:11,403
Я слышу слова писателя. Всё должно быть
аккуратно, искусственно, как в детективе.
98
00:06:12,083 --> 00:06:15,572
Нет, в деле Димитриоса осталось
много неясностей, десятки.
99
00:06:16,228 --> 00:06:18,814
Всего через час его тело
будет предано земле, и
100
00:06:18,839 --> 00:06:21,424
на эти неясности мы уже
никогда не прольём свет.
101
00:06:21,503 --> 00:06:23,120
Вот, видите? Ничего
искусственного.
102
00:06:23,589 --> 00:06:26,041
Скажите же мне, мистер Лайден,
есть ли в этой истории
103
00:06:26,066 --> 00:06:28,108
что-то, что могло бы
заинтересовать писателя?
[erzsebet.pl].t113.torrent
Torrent: Registered [ 2017-12-02 16:06 ] · 72709518E4E8CF8C856FD4486558D95783B16EAA

Download .torrent

Download

14 KB

Status: checked
Completed: 16 times
Size: 699 MB
terms.php
[Profile] [PM]
Display posts:    
Reply to topic

Current time is: 08-Mar 02:30

All times are UTC ± 0



You cannot post new topics in this forum
You cannot reply to topics in this forum
You cannot edit your posts in this forum
You cannot delete your posts in this forum
You cannot vote in polls in this forum
You cannot attach files in this forum
You can download files in this forum