Фантом / Фатом / Фатум / Fathom (Лесли Х. Мартинсон / Leslie H. Martinson) [1967, Великобритания, боевик, комедия, приключения, DVDRip] AVO (Владимир Сонькин - VHS)

Reply to topic
DL-List and Torrent activity
Size:  1.37 GB   |    Registered:  3 years 3 months   |    Completed:  16 times

Seeder not seen: 3 years 3 months

 
   
 
 
Author Message

erzsebet.org ®

Longevity: 3 years 2 months

Posts: 47596

Post 02-Dec-2017 16:06

[Quote]

Фантом / Фатом / Фатум / Fathom
Страна: Великобритания
Жанр: боевик, комедия, приключения
Год выпуска: 1967
Продолжительность: 01:35:00
Перевод: Авторский (одноголосый закадровый) Владимир Сонькин (VHS)
Субтитры: нет
Режиссер: Лесли Х. Мартинсон / Leslie H. Martinson
В ролях: Энтони Франчоза, Рэкел Уэлч, Рональд Фрайзер, Ричард Брирс, Грета Чи, Том Адамс, Элизабет Эрси, Энн Ланкастер, Тутте Лемков
Описание: Очаровательная Рэкел Уэлч в роли спортсменки-парашютистки. Американская спортсменка-парашютистка Фатом Харвилл оказывается втянутой в охоту за недавно пропавшей водородной бомбой которая называется «Огненный дракон». За бомбой также ведут охоту агенты Красного Китая, международная спецслужба ГАДЕС и международный торговец краденным Сергей Серапкин. Мисс Харвилл предстоит выяснить являются ли все эти люди теми за кого себя выдают и какие цели преследуют на самом деле.
Доп. информация: Выражаю огромную благодарность Нордеру, за синхронизацию звуковой дорожки.
Сэмпл: http://multi-up.com/1174970
Качество видео: DVDRip (Исходник - DVD9)
Формат видео: AVI
Видео: XviD 73, 688x288, (2,40:1), 25,000 fps, 1857 Кбит/с, 8 бит
Аудио: Русский (АС3, 2 ch (Front: L R), 48,0 KHz, 192 Kbps)

MediaInfo

Общее
Полное имя : D:\Видеофильмы\В и д е о\Фантом (боевик, комедия, приключения 1967 год).avi
Формат : AVI
Формат/Информация : Audio Video Interleave
Размер файла : 1,37 Гбайт
Продолжительность : 1 ч. 35 м.
Общий поток : 2059 Кбит/сек
Программа кодирования : VirtualDubMod 1.5.10.2 (build 2540/release)
Библиотека кодирования : VirtualDubMod build 2540/release
Видео
Идентификатор : 0
Формат : MPEG-4 Visual
Профиль формата : Advanced [email protected]
Параметр BVOP формата : 2
Параметр QPel формата : Нет
Параметр GMC формата : Без точки перехода
Параметр матрицы формата : Выборочная
Идентификатор кодека : XVID
Идентификатор кодека/Подсказка : XviD
Продолжительность : 1 ч. 35 м.
Битрейт : 1857 Кбит/сек
Ширина : 688 пикселей
Высота : 288 пикселей
Соотношение сторон : 2,40:1
Частота кадров : 25,000 кадров/сек
Цветовое пространство : YUV
Субдискретизация насыщенности : 4:2:0
Битовая глубина : 8 бит
Тип развёртки : Прогрессивная
Метод сжатия : С потерями
Бит/(Пиксели*Кадры) : 0.375
Размер потока : 1,23 Гбайт (90%)
Библиотека кодирования : XviD 73
Аудио
Идентификатор : 1
Формат : AC-3
Формат/Информация : Audio Coding 3
Расширение режима : CM (complete main)
Параметр Endianness формата : Big
Идентификатор кодека : 2000
Продолжительность : 1 ч. 34 м.
Вид битрейта : Постоянный
Битрейт : 192 Кбит/сек
Каналы : 2 канала
Расположение каналов : Front: L R
Частота : 48,0 КГц
Частота кадров : 31,250 кадров/сек (1536 spf)
Метод сжатия : С потерями
Размер потока : 130 Мбайт (9%)
Выравнивание : Разделение по промежуткам
Продолжительность промежутка : 40 мс. (1,00 видеокадр)
Время предзагрузки промежутка : 500 мс.

Скриншот c названием фильма

Скриншоты

[erzsebet.pl].t116.torrent
Torrent: Registered [ 2017-12-02 16:06 ] · EB38E511DA5468B61CB407E466422E45A7D049F4

Download .torrent

Download

14 KB

Status: checked
Completed: 16 times
Size: 1.37 GB
terms.php
[Profile] [PM]
Display posts:    
Reply to topic

Current time is: 07-Mar 20:39

All times are UTC ± 0



You cannot post new topics in this forum
You cannot reply to topics in this forum
You cannot edit your posts in this forum
You cannot delete your posts in this forum
You cannot vote in polls in this forum
You cannot attach files in this forum
You can download files in this forum