Дама с камелиями / Camille (Десмонд Дэвис / Desmond Davis) [1984, Великобритания, США, Драма, мелодрама, BDRip-AVC] MVO + Sub Rus + Original Eng

DL-List and Torrent activity
Size:  2.07 GB   |    Registered:  2 years 9 months   |    Completed:  16 times
Seeders:  1  
 
   
 
 

erzsebet.org ®

Longevity:
2 years 9 months
Posts:
47596

[Quote] 

Дама с камелиями / Camille Страна: Великобритания, США
Жанр: Драма, мелодрама
Год выпуска: 1984
Продолжительность: 01:39:54
Перевод: Профессиональный (многоголосый закадровый)
Субтитры: русские Gorushka
Оригинальная аудиодорожка: английский
Режиссер: Десмонд Дэвис / Desmond Davis
В ролях: Грета Скакки / Greta Scacchi, Колин Ферт / Colin Firth, Джон Гилгуд / John Gielgud, Денхолм Эллиотт / Denholm Elliott, Бен Кингсли / Ben Kingsley, Роналд Пикап / Ronald Pickup
Описание: Телеверсия знаменитого романа Александра Дюма-сына.
Сюжет романа во многом близок к реальной истории автора и модной парижской куртизанки - черноволосой красавицы с лицом японской фарфоровой куклы, известной в Париже как «дама с камелиями». За исключением того, что на полную и всепоглощающую любовь, которой так жаждала Мари Дюплесси, Дюма-сын оказался неспособен. Он покинул ее, отправившись путешествовать.
Вернувшись, он узнает о ее недавней смерти от чахотки. Купив на распродаже ее имущества какие-то пустяки, вскоре запирается в номере отеля и, страдая от угрызений совести, пишет роман, в котором дарит Мари ту историю любви, испытать которую в жизни ей было не суждено.
Себе же он подарил бессмертие автора единственного, но великого романа.
...Куртизанка Маргарита Готье так же бездумно растрачивает свою жизнь, как и капиталы своих поклонников. Однажды в театре ее видит небогатый провинциальный дворянин Арман Дюваль. Юноша мгновенно влюбляется в доступную лишь богачам богиню полусвета, увы, позволяя себе лишь почтительное ухаживание.
Искренность его чувств завоевывает сердце, никогда не знавшее любви. Пара проводит волшебное романтическое лето в деревенской глуши. Но наступившая осень приносит нежеланные перемены, поставив их перед лицом жестокой реальности: диктата денег и правил приличий парижского общества.
Все раздачи фильма
Информация о фильме:

Качество видео: BDRip-AVC
Формат видео: MKV
Видео: AVC 768x576 (1.33:1), 23.976 fps, 2550 kbps, 0.24 bit/pixel
Аудио 1: Russian 48 kHz, AC3 Dolby Digital, 2/0 (L,R) ch, ~192 kbps - MVO
Аудио 2: English 48 kHz, AC3 Dolby Digital, 2/0 (L,R) ch, ~224 kbps
Формат субтитров: softsub (SRT)
Навигация по главам: есть
Создание BD-рипа: Gorushka, m2ts-файл блюрея с фильмом любезно предоставлен мне зарубежным кинофорумом.
Создание русских субтитров: Gorushka
Синхронизация русской дорожки из этой раздачи - http://erzsebet.org/forum/viewtopic.php?t=3719094 - Gorushka
Создание английского AC3 Dolby Digital 2.0 224 kbps из английского оригинального DTS 2.0 - Gorushka

Soft

BeSweetv1.5b31+BeLight-0.22beta9
UsEac3to + eac3to
Vegas Pro 10.0
MeGUI_2525_x86
MeGUI_2624_x86
VirtualDub
VirtualDubMod
SubtitleWorkShop

x264

x264 [info]: frame I:1051 Avg QP:17.80 size: 78997
x264 [info]: frame P:27310 Avg QP:19.89 size: 29655
x264 [info]: frame B:115369 Avg QP:22.37 size: 8822
x264 [info]: consecutive B-frames: 1.2% 1.4% 3.5% 16.5% 11.3% 44.2% 13.8% 4.0% 4.2%
x264 [info]: mb I I16..4: 2.5% 81.9% 15.6%
x264 [info]: mb P I16..4: 0.4% 6.6% 1.0% P16..4: 41.9% 27.3% 19.5% 0.9% 0.2% skip: 2.1%
x264 [info]: mb B I16..4: 0.0% 0.8% 0.1% B16..8: 45.8% 10.7% 3.1% direct: 8.3% skip:31.2% L0:44.5% L1:45.3% BI:10.2%
x264 [info]: 8x8 transform intra:84.0% inter:60.7%
x264 [info]: direct mvs spatial:98.8% temporal:1.2%
x264 [info]: coded y,uvDC,uvAC intra: 94.7% 76.6% 41.2% inter: 37.7% 31.1% 1.3%
x264 [info]: i16 v,h,dc,p: 50% 11% 8% 31%
x264 [info]: i8 v,h,dc,ddl,ddr,vr,hd,vl,hu: 10% 7% 6% 10% 15% 14% 14% 12% 12%
x264 [info]: i4 v,h,dc,ddl,ddr,vr,hd,vl,hu: 11% 7% 3% 9% 15% 15% 14% 12% 13%
x264 [info]: i8c dc,h,v,p: 39% 24% 22% 15%
x264 [info]: Weighted P-Frames: Y:17.7% UV:5.5%
x264 [info]: ref P L0: 38.7% 14.6% 17.5% 6.8% 6.4% 4.3% 4.4% 2.3% 2.5% 2.0% 0.4% 0.0%
x264 [info]: ref B L0: 71.5% 12.4% 5.6% 3.3% 2.3% 2.2% 1.7% 0.7% 0.3%
x264 [info]: ref B L1: 92.6% 7.4%
x264 [info]: kb/s:2549.75

MediaInfo

General
Unique ID : 179062674134684433794958867626634430181 (0x86B6377358CF7467A2A17C0D84F2C6E5)
Complete name : J:\Dama.s.kamelijami.1984.BDRip.x264.768х576.mkv
Format : Matroska
Format version : Version 4 / Version 2
File size : 2.07 GiB
Duration : 1 h 39 min
Overall bit rate : 2 968 kb/s
Encoded date : UTC 2017-12-01 15:21:40
Writing application : mkvmerge v6.9.1 ('Blue Panther') 32bit built on Apr 18 2014 18:15:44
Writing library : libebml v1.3.0 + libmatroska v1.4.1
Video
ID : 1
Format : AVC
Format/Info : Advanced Video Codec
Format profile : [email protected]
Format settings : CABAC / 10 Ref Frames
Format settings, CABAC : Yes
Format settings, RefFrames : 10 frames
Codec ID : V_MPEG4/ISO/AVC
Duration : 1 h 39 min
Bit rate : 2 550 kb/s
Width : 768 pixels
Height : 576 pixels
Display aspect ratio : 4:3
Frame rate mode : Constant
Frame rate : 23.976 (24000/1001) FPS
Color space : YUV
Chroma subsampling : 4:2:0
Bit depth : 8 bits
Scan type : Progressive
Bits/(Pixel*Frame) : 0.240
Stream size : 1.74 GiB (84%)
Writing library : x264 core 148 r2638 7599210
Encoding settings : cabac=1 / ref=10 / deblock=1:-2:-1 / analyse=0x3:0x133 / me=umh / subme=9 / psy=1 / psy_rd=1.00:0.00 / mixed_ref=1 / me_range=24 / chroma_me=1 / trellis=2 / 8x8dct=1 / cqm=0 / deadzone=21,11 / fast_pskip=1 / chroma_qp_offset=-2 / threads=6 / lookahead_threads=1 / sliced_threads=0 / nr=0 / decimate=1 / interlaced=0 / bluray_compat=0 / constrained_intra=0 / bframes=8 / b_pyramid=2 / b_adapt=2 / b_bias=0 / direct=3 / weightb=1 / open_gop=0 / weightp=2 / keyint=240 / keyint_min=23 / scenecut=40 / intra_refresh=0 / rc_lookahead=60 / rc=2pass / mbtree=1 / bitrate=2550 / ratetol=1.0 / qcomp=0.60 / qpmin=10 / qpmax=69 / qpstep=4 / cplxblur=20.0 / qblur=0.5 / vbv_maxrate=25000 / vbv_bufsize=78125 / nal_hrd=none / filler=0 / ip_ratio=1.40 / aq=1:1.00
Default : Yes
Forced : No
Audio #1
ID : 2
Format : AC-3
Format/Info : Audio Coding 3
Codec ID : A_AC3
Duration : 1 h 39 min
Bit rate mode : Constant
Bit rate : 192 kb/s
Channel(s) : 2 channels
Channel positions : Front: L R
Sampling rate : 48.0 kHz
Frame rate : 31.250 FPS (1536 SPF)
Bit depth : 16 bits
Compression mode : Lossy
Stream size : 137 MiB (6%)
Language : Russian
Service kind : Complete Main
Default : Yes
Forced : No
Audio #2
ID : 3
Format : AC-3
Format/Info : Audio Coding 3
Codec ID : A_AC3
Duration : 1 h 39 min
Bit rate mode : Constant
Bit rate : 224 kb/s
Channel(s) : 2 channels
Channel positions : Front: L R
Sampling rate : 48.0 kHz
Frame rate : 31.250 FPS (1536 SPF)
Bit depth : 16 bits
Compression mode : Lossy
Stream size : 160 MiB (8%)
Language : English
Service kind : Complete Main
Default : No
Forced : No
Text
ID : 4
Format : UTF-8
Codec ID : S_TEXT/UTF8
Codec ID/Info : UTF-8 Plain Text
Language : Russian
Default : No
Forced : No
Menu
00:00:00.000 : en:00:00:00.000
00:04:44.493 : en:00:04:44.493
00:15:40.940 : en:00:15:40.940
00:25:05.796 : en:00:25:05.796
00:36:56.756 : en:00:36:56.756
00:48:48.342 : en:00:48:48.342
01:00:18.365 : en:01:00:18.365
01:12:39.605 : en:01:12:39.605
01:17:32.523 : en:01:17:32.523
01:23:57.074 : en:01:23:57.074
01:32:20.076 : en:01:32:20.076
01:38:50.716 : en:01:38:50.716

Скриншот c названием фильма

Скриншоты

If your ratio falls below 0.3, you will not be able to download Torrents! More about the rating.

[erzsebet.pl].t12.torrent
Torrent: Registered   [ 2017-12-02 15:58 ]

Download .torrent

Download

11 KB

Status: checked
Completed: 16 times
Size: 2.07 GB
terms.php

#1

02-Dec-2017 15:58

[Profile]  [PM] 
Display posts:    

You cannot post new topics in this forum
You cannot reply to topics in this forum
You cannot edit your posts in this forum
You cannot delete your posts in this forum
You cannot vote in polls in this forum
You cannot attach files in this forum
You can download files in this forum
User agreement
For copyright holders
Advertise on this site

Скачайте на халяву через торрент на трекере erzsebet.pl

!ATTENTION!
The site does not give electronic versions of products, and is engaged only in a collecting and cataloguing of the references sent and published at a forum by our readers. If you are the legal owner of any submitted material and do not wish that the reference to it was in our catalogue, contact us and we shall immediately remove her. Files for an exchange on tracker are given by users of a site, and the administration does not bear the responsibility for their maintenance. The request to not fill in the files protected by copyrights, and also files of the illegal maintenance!