Побег / The Getaway (Сэм Пекинпа / Sam Peckinpah) [1972, США, боевик, триллер, мелодрама, BDRip] AVO (Михаил Иванов)

Reply to topic
DL-List and Torrent activity
Size:  1.46 GB   |    Registered:  3 years 3 months   |    Completed:  16 times

Seeder not seen: 3 years 3 months

 
   
 
 
Author Message

erzsebet.org ®

Longevity: 3 years 2 months

Posts: 47596

Post 02-Dec-2017 16:10

[Quote]

Побег / The Getaway
Страна: США
Жанр: боевик, триллер, мелодрама
Год выпуска: 1972
Продолжительность: 02:02:49
Перевод: Авторский (одноголосый закадровый) Михаил Иванов
Субтитры: нет
Режиссер: Сэм Пекинпа / Sam Peckinpah
В ролях: Стив МакКуин, Эли МакГроу, Бен Джонсон, Сэлли Стразерс, Эл Леттьери, Слим Пикенс, Ричард Брайт, Джек Додсон, Даб Тейлор
Описание: Очень крутого и знаменитого грабителя банка по имени Док МакКой некие сильные мира сего освобождают из тюряги, где он мотал очередной срок, для совершения ограбления, чтобы списать на него крупную недостачу и затем убрать. Использовали для этого его жену, которая пошла на это, лишь бы вытянуть любимого из-за решетки. Но хотели как лучше, а получилось как всегда: вместе они взяли банк и рванули к мексиканской границе, хотя на хвосте у них сидят не только полицейские, но и боевики мафии…
Доп. информация: Выражаю огромную благодарность Нордеру, за синхронизацию звуковой дорожки.
Сэмпл: http://multi-up.com/1174946
Качество видео: BDRip (Исходник BDRemux 1080p)
Формат видео: AVI
Видео: XviD 73, 720x304, (2,35:1), 23,976 fps, 1499 Кбит/с, 8 бит, 0.29 bit/pixel
Аудио: Русский (АС3, 2 ch (Front: L R), 48,0 KHz, 192 Kbps)

MediaInfo

Общее
Полное имя : D:\Видеофильмы\В и д е о\Побег (боевик, триллер, мелодрама 1972 год).avi
Формат : AVI
Формат/Информация : Audio Video Interleave
Размер файла : 1,46 Гбайт
Продолжительность : 2 ч. 2 м.
Общий поток : 1701 Кбит/сек
Программа кодирования : VirtualDubMod 1.5.10.2 (build 2540/release)
Библиотека кодирования : VirtualDubMod build 2540/release
Видео
Идентификатор : 0
Формат : MPEG-4 Visual
Профиль формата : Advanced [email protected]
Параметр BVOP формата : 2
Параметр QPel формата : Нет
Параметр GMC формата : Без точки перехода
Параметр матрицы формата : Выборочная
Идентификатор кодека : XVID
Идентификатор кодека/Подсказка : XviD
Продолжительность : 2 ч. 2 м.
Битрейт : 1499 Кбит/сек
Ширина : 720 пикселей
Высота : 304 пикселя
Соотношение сторон : 2,35:1
Частота кадров : 23,976 (23976/1000) кадра/сек
Цветовое пространство : YUV
Субдискретизация насыщенности : 4:2:0
Битовая глубина : 8 бит
Тип развёртки : Прогрессивная
Метод сжатия : С потерями
Бит/(Пиксели*Кадры) : 0.286
Размер потока : 1,29 Гбайт (88%)
Библиотека кодирования : XviD 73
Аудио
Идентификатор : 1
Формат : AC-3
Формат/Информация : Audio Coding 3
Расширение режима : CM (complete main)
Параметр Endianness формата : Big
Идентификатор кодека : 2000
Продолжительность : 2 ч. 2 м.
Вид битрейта : Постоянный
Битрейт : 192 Кбит/сек
Каналы : 2 канала
Расположение каналов : Front: L R
Частота : 48,0 КГц
Частота кадров : 31,250 кадров/сек (1536 spf)
Метод сжатия : С потерями
Размер потока : 169 Мбайт (11%)
Выравнивание : Разделение по промежуткам
Продолжительность промежутка : 42 мс. (1,00 видеокадр)
Время предзагрузки промежутка : 500 мс.

Скриншот c названием фильма

Скриншоты

[erzsebet.pl].t120.torrent
Torrent: Registered [ 2017-12-02 16:10 ] · F05AC27D4D3575B128343A53FB1B2B0481D7EAC4

Download .torrent

Download

15 KB

Status: checked
Completed: 16 times
Size: 1.46 GB
terms.php
[Profile] [PM]
Display posts:    
Reply to topic

Current time is: 03-Mar 17:06

All times are UTC ± 0



You cannot post new topics in this forum
You cannot reply to topics in this forum
You cannot edit your posts in this forum
You cannot delete your posts in this forum
You cannot vote in polls in this forum
You cannot attach files in this forum
You can download files in this forum