Соблазнитель / Il Seduttore (Франко Росси / Franco Rossi) [1954, Италия, Комедия, DVDRip] VO (Urasiko) + Sub Rus + Original Ita

Reply to topic
DL-List and Torrent activity
Size:  1.46 GB   |    Registered:  3 years 3 months   |    Completed:  16 times

Seeder not seen: 3 years 3 months

 
   
 
 
Author Message

erzsebet.org ®

Longevity: 3 years 2 months

Posts: 47596

Post 02-Dec-2017 16:10

[Quote]

Соблазнитель / Il Seduttore
Страна: Италия
Жанр: Комедия
Год выпуска: 1954
Продолжительность: 01:34:04
Перевод: Одноголосый закадровый Urasiko
Субтитры: русские
Оригинальная аудиодорожка: итальянский
Режиссер: Франко Росси / Franco Rossi
В ролях: Альберто Сорди, Леа Падовани, Лия Аманда, Жаклин Пьерро, Дениз Грей, Чиччо Барби, Мино Доро, Нино Винджелли, Ева Ваничек и другие
Описание: Альберто - тридцатилетний женатый римлянин, одержимый навязчивой идеей соблазнить побольше женщин, попадает в неприятную ситуацию, пытаясь завести роман одновременно с двумя иностранками.
Доп. информация: Релиз
Перевод с итальянского языка Urasiko
Сэмпл: http://multi-up.com/1174786
Качество видео: DVDRip
Формат видео: AVI
Видео: 624x464 (1.34:1), 25.00 fps, XviD MPEG-4, ~1946 kbps avg, 0.27 bit/pixel
Аудио: Русский MP3, 2/0 (L,R) ch, 48 kHz, 128 kbps
Аудио: Итальянский MP3, 1/0 (L,R) ch, 48 kHz, 128 kbps
Формат субтитров: softsub (SRT)

MediaInfo

Общее
Полное имя : E:\CD\Il seduttore Ru\Il seduttore (1954) Ru.avi
Формат : AVI
Формат/Информация : Audio Video Interleave
Размер файла : 1,46 Гбайт
Продолжительность : 1 ч. 34 м.
Общий поток : 2217 Кбит/сек
Программа кодирования : VirtualDubMod 1.5.10.2 (build 2540/release)
Библиотека кодирования : VirtualDubMod build 2540/release
Видео
Идентификатор : 0
Формат : MPEG-4 Visual
Профиль формата : Advanced [email protected]
Параметр BVOP формата : 1
Параметр QPel формата : Нет
Параметр GMC формата : Без точки перехода
Параметр матрицы формата : Выборочная
Идентификатор кодека : XVID
Идентификатор кодека/Подсказка : XviD
Продолжительность : 1 ч. 34 м.
Битрейт : 1946 Кбит/сек
Ширина : 624 пикселя
Высота : 464 пикселя
Соотношение сторон : 4:3
Частота кадров : 25,000 кадров/сек
Цветовое пространство : YUV
Субдискретизация насыщенности : 4:2:0
Битовая глубина : 8 бит
Тип развёртки : Прогрессивная
Метод сжатия : С потерями
Бит/(Пиксели*Кадры) : 0.269
Размер потока : 1,28 Гбайт (88%)
Библиотека кодирования : XviD 64
Аудио #1
Идентификатор : 1
Формат : MPEG Audio
Версия формата : Version 1
Профиль формата : Layer 3
Режим : Joint stereo
Расширение режима : MS Stereo
Идентификатор кодека : 55
Идентификатор кодека/Подсказка : MP3
Продолжительность : 1 ч. 34 м.
Вид битрейта : Постоянный
Битрейт : 128 Кбит/сек
Каналы : 2 канала
Частота : 48,0 КГц
Метод сжатия : С потерями
Размер потока : 86,1 Мбайт (6%)
Выравнивание : Разделение по промежуткам
Продолжительность промежутка : 40 мс. (1,00 видеокадр)
Время предзагрузки промежутка : 500 мс.
Аудио #2
Идентификатор : 2
Формат : MPEG Audio
Версия формата : Version 1
Профиль формата : Layer 3
Идентификатор кодека : 55
Идентификатор кодека/Подсказка : MP3
Продолжительность : 1 ч. 34 м.
Вид битрейта : Постоянный
Битрейт : 128 Кбит/сек
Каналы : 1 канал
Частота : 48,0 КГц
Метод сжатия : С потерями
Размер потока : 86,1 Мбайт (6%)
Выравнивание : Разделение по промежуткам
Продолжительность промежутка : 40 мс. (1,00 видеокадр)
Время предзагрузки промежутка : 500 мс.

Фрагмент русских субтитров фильма

805
00:49:52,327 --> 00:49:54,204
- Летчик - милитарист?
- Что такое милитарист?
806
00:49:54,327 --> 00:49:58,081
- А, гражданский!
- Гражданский! Сейчас работает на восточных линиях:
807
00:49:58,207 --> 00:50:00,767
..Токио, Карачи,
Сингапур, Гонг-Конг...
808
00:50:00,887 --> 00:50:02,843
- Рим?
- Нет, в Рим не летает! - В Рим никогда?
809
00:50:02,967 --> 00:50:05,435
Иногда.
Внезапно появляется и быстро улетает.
810
00:50:05,567 --> 00:50:08,001
- И часто он так внезапно появляется?
- Да, часто.
811
00:50:08,127 --> 00:50:10,322
Так Вы давно живете здесь
вдвоем с синьорой?
812
00:50:10,447 --> 00:50:12,915
- Приезжает два года.
- А муж летает...
813
00:50:13,047 --> 00:50:15,003
Как я ушел в отставку.
814
00:50:15,127 --> 00:50:16,879
А, и принимаете синьору, да?
815
00:50:18,127 --> 00:50:23,121
- Она платит за приезды! < А, хорошо
здесь. Полезно для здоровья, спорт..
816
00:50:24,527 --> 00:50:28,122
- Это Вы занимаетесь, полковник?
- Нет, нет. Это муж синьоры.
817
00:50:28,527 --> 00:50:30,802
< Занимается боксом.
- Боксом?
818
00:50:31,567 --> 00:50:34,400
Спорю, что Вы и есть хозяин машины!
819
00:50:34,527 --> 00:50:36,518
< Здравствуйте!
- Здравствуйте!
820
00:50:36,647 --> 00:50:39,036
- Простите меня за произошедшее.
- Ради Бога, синьора!
821
00:50:39,167 --> 00:50:41,886
Определенно, моё возвращение
из Парижа стало сюрпризом.
822
00:50:42,007 --> 00:50:44,885
Какие красивые пушистики!
Кто это та...
823
00:50:45,007 --> 00:50:48,602
- Это мои дети.
- Ваши дети?
824
00:50:48,927 --> 00:50:50,963
Да. Я восемь лет замужем
за американцем.
825
00:50:51,087 --> 00:50:54,363
- Надо же...
И у Вас уже такие два пушистика? - Да.

Скриншот c названием фильма

Скриншоты

[erzsebet.pl].t121.torrent
Torrent: Registered [ 2017-12-02 16:10 ] · ECBD6FE56E4488371C592A44211B4B2394776B1B

Download .torrent

Download

15 KB

Status: checked
Completed: 16 times
Size: 1.46 GB
terms.php
[Profile] [PM]
Display posts:    
Reply to topic

Current time is: 08-Mar 03:04

All times are UTC ± 0



You cannot post new topics in this forum
You cannot reply to topics in this forum
You cannot edit your posts in this forum
You cannot delete your posts in this forum
You cannot vote in polls in this forum
You cannot attach files in this forum
You can download files in this forum