Когда отец с сыном / Wenn der Vater mit dem Sohne (Ганс Квест / Hans Quest) [1955, Германия (ФРГ), драма, комедия, DVDRip] VO + Sub Rus + Original Ger

DL-List and Torrent activity
Size:  1.34 GB   |    Registered:  2 years 9 months   |    Completed:  16 times
Seeders:  5   Leechers:  1   Show peers in full details
 
   
 
 

erzsebet.org ®

Longevity:
2 years 9 months
Posts:
47596

[Quote] 

Когда отец с сыном / Wenn der Vater mit dem Sohne
Страна: Германия (ФРГ)
Жанр: драма, комедия
Год выпуска: 1955
Продолжительность: 01:33:23
Перевод: Одноголосый закадровый
Субтитры: русские
Оригинальная аудиодорожка: немецкий
Режиссер: Ганс Квест / Hans Quest
В ролях: Хайнц Рюманн, Оливер Грим, Вальтраут Хаас, Роберт Фрайтаг, Сибил Верден, Фита Бенкофф, Карл-Хайнц Шрот, Перо Александр, Герберт Кипер, Ганс Шварц-мл., Рудольф Шюндлер
Описание: Потеряв сына, клоун Тедди утратил способность смешить людей. Он открыл магазин приколов и живет в квартире над магазином. У хозяйки квартиры есть маленький приемный сын. Тедди помогает воспитывать его с рождения, и мальчик считает, что Тедди - его отец. Когда спустя пять лет внезапно появляется мать ребенка и хочет забрать его, Тедди решает бежать с мальчиком и возвращается на сцену с ним как со своим сыном.
Доп. информация: Фильм взят отсюда http://erzsebet.org/forum/viewtopic.php?t=4261219
Сэмпл: http://multi-up.com/1174608
Качество видео: DVDRip
Формат видео: AVI
Видео: 688x512 (1.34:1), 25 fps, XviD MPEG-4 ~1647 kbps avg, 0.19 bit/pixel
Аудио 1: 48 kHz, AC3 Dolby Digital, 2/0 (L,R) ch, ~192.00 kbps avg(русский)
Аудио 2: 48 kHz, AC3 Dolby Digital, 2/0 (L,R) ch, ~192.00 kbps avg(немецкий)
Формат субтитров: softsub (SRT)
Доп. информация о субтитрах: Русские внешние (mensch)

MediaInfo

Общее
Полное имя : F:\С моей озвучкой\Когда отец с сыном\Wenn der Vater mit dem Sohne.avi
Формат : AVI
Формат/Информация : Audio Video Interleave
Размер файла : 1,34 Гбайт
Продолжительность : 1 ч. 33 м.
Общий поток : 2047 Кбит/сек
Программа кодирования : VirtualDubModRus 1.5.10.2 (build 2542/release)
Библиотека кодирования : VirtualDubMod build 2542/release
Видео
Идентификатор : 0
Формат : MPEG-4 Visual
Профиль формата : Advanced [email protected]
Параметр BVOP формата : 2
Параметр QPel формата : Нет
Параметр GMC формата : Без точки перехода
Параметр матрицы формата : Default (H.263)
Режим смешивания : Сжатый битовый поток
Идентификатор кодека : XVID
Идентификатор кодека/Подсказка : XviD
Продолжительность : 1 ч. 33 м.
Битрейт : 1648 Кбит/сек
Ширина : 688 пикселей
Высота : 512 пикселей
Соотношение сторон : 4:3
Частота кадров : 25,000 кадров/сек
Цветовое пространство : YUV
Субдискретизация насыщенности : 4:2:0
Битовая глубина : 8 бит
Тип развёртки : Прогрессивная
Метод сжатия : С потерями
Бит/(Пиксели*Кадры) : 0.187
Размер потока : 1,08 Гбайт (81%)
Библиотека кодирования : XviD 64
Аудио #1
Идентификатор : 1
Формат : AC-3
Формат/Информация : Audio Coding 3
Параметр Endianness формата : Big
Идентификатор кодека : 2000
Продолжительность : 1 ч. 33 м.
Вид битрейта : Постоянный
Битрейт : 192 Кбит/сек
Каналы : 2 канала
Расположение каналов : Front: L R
Частота : 48,0 КГц
Частота кадров : 31,250 кадров/сек (1536 SPF)
Битовая глубина : 16 бит
Метод сжатия : С потерями
Размер потока : 128 Мбайт (9%)
Выравнивание : Разделение по промежуткам
Продолжительность промежутка : 40 мс. (1,00 видеокадр)
Время предзагрузки промежутка : 500 мс.
ServiceKind/String : Complete Main
Аудио #2
Идентификатор : 2
Формат : AC-3
Формат/Информация : Audio Coding 3
Параметр Endianness формата : Big
Идентификатор кодека : 2000
Продолжительность : 1 ч. 33 м.
Вид битрейта : Постоянный
Битрейт : 192 Кбит/сек
Каналы : 2 канала
Расположение каналов : Front: L R
Частота : 48,0 КГц
Частота кадров : 31,250 кадров/сек (1536 SPF)
Битовая глубина : 16 бит
Метод сжатия : С потерями
Размер потока : 128 Мбайт (9%)
Выравнивание : Разделение по промежуткам
Продолжительность промежутка : 40 мс. (1,00 видеокадр)
Время предзагрузки промежутка : 500 мс.
ServiceKind/String : Complete Main

Скриншоты

If your ratio falls below 0.3, you will not be able to download Torrents! More about the rating.

[erzsebet.pl].t122.torrent
Torrent: Registered   [ 2017-12-02 16:10 ]

Download .torrent

Download

14 KB

Status: checked
Completed: 16 times
Size: 1.34 GB
terms.php

#1

02-Dec-2017 16:10

[Profile]  [PM] 
Display posts:    

You cannot post new topics in this forum
You cannot reply to topics in this forum
You cannot edit your posts in this forum
You cannot delete your posts in this forum
You cannot vote in polls in this forum
You cannot attach files in this forum
You can download files in this forum
User agreement
For copyright holders
Advertise on this site

Скачайте на халяву через торрент на трекере erzsebet.pl

!ATTENTION!
The site does not give electronic versions of products, and is engaged only in a collecting and cataloguing of the references sent and published at a forum by our readers. If you are the legal owner of any submitted material and do not wish that the reference to it was in our catalogue, contact us and we shall immediately remove her. Files for an exchange on tracker are given by users of a site, and the administration does not bear the responsibility for their maintenance. The request to not fill in the files protected by copyrights, and also files of the illegal maintenance!