Седьмое путешествие Синдбада / The 7th Voyage of Sinbad (Нэйтан Юран / Nathan Juran) [1958, Великобритания, США, сказка, приключения, VHSRip-AVC] [Fullscreen] MVO (Видеосервис)

DL-List and Torrent activity
Size:  1.88 GB   |    Registered:  2 years 9 months   |    Completed:  16 times
Seeders:  4  
 
   
 
 

erzsebet.org ®

Longevity:
2 years 9 months
Posts:
47596

[Quote] 

Седьмое путешествие Синдбада / The 7th Voyage of Sinbad / Fullscreen
Страна: Великобритания, США
Жанр: сказка, приключения
Год выпуска: 1958
Продолжительность: 01:24:22
Перевод: Профессиональный (многоголосый закадровый) Видеосервис
Субтитры: нет
Оригинальная аудиодорожка: нет
Режиссер: Нэйтан Юран / Nathan Juran
В ролях: Кервин Мэтьюз, Кэтрин Грант, Ричард Айер, Торин Тэтчер, Алек Мэнго, Дэнни Грин, Харольд Каскет, Альфред Браун, Нана ДэХеррера, Нино Фаланга, Луис Гуедес, Виржилиу Тейшейра...
Описание:
Фильм великого Рэя Харрихаузена, не указанного в титрах, ни как автор сюжета, ни как продюсер, ни как автор гениальных спецэффектов - жуткая несправедливость!
Синдбад, желая избавить свою невесту от колдовских чар злого колдуна Сакуры, отправляется к волшебному острову, где его и его друзей поджидает множество опасностей и испытаний.
Синдбад должен победить мерзкого одноглазого циклопа и огромного дракона, сразиться с черным чародеем — и, в конце концов, одержав победу над силами зла и освободив от заклятья любимую, отправиться вперед, навстречу новым подвигам.
Доп. информация:
Оцифровка лицензионной VHS из собственной коллекции.
Fullscreen!
Данный перевод впервые в Рунете!
Сэмпл: http://sendfile.su/1374278
Качество видео: VHSRip-AVC
Формат видео: MP4
Видео: AVC, 720х576, 5:4, 25,000 кадров/сек, 3000 Кбит/сек
Аудио: AAC, 48,0 КГц, 192 Кбит/сек, 2.0 (псевдостерео)

MediaInfo

General
Complete name : K:\torrents\The 7th Voyage of Sinbad\The 7th Voyage of Sinbad.mp4
Format : MPEG-4
Format profile : Base Media
Codec ID : isom (isom/iso2/avc1/mp41)
File size : 1.88 GiB
Duration : 1 h 24 min
Overall bit rate : 3 196 kb/s
Writing application : Lavf57.25.100
Video
ID : 1
Format : AVC
Format/Info : Advanced Video Codec
Format profile : [email protected]
Format settings : 1 Ref Frames
Format settings, CABAC : No
Format settings, RefFrames : 1 frame
Format settings, GOP : M=1, N=50
Codec ID : avc1
Codec ID/Info : Advanced Video Coding
Duration : 1 h 24 min
Bit rate : 3 000 kb/s
Width : 720 pixels
Height : 576 pixels
Display aspect ratio : 5:4
Frame rate mode : Constant
Frame rate : 25.000 FPS
Standard : PAL
Color space : YUV
Chroma subsampling : 4:2:0
Bit depth : 8 bits
Scan type : Progressive
Bits/(Pixel*Frame) : 0.289
Stream size : 1.77 GiB (94%)
Language : English
Audio
ID : 2
Format : AAC
Format/Info : Advanced Audio Codec
Format profile : LC
Codec ID : mp4a-40-2
Duration : 1 h 24 min
Bit rate mode : Constant
Bit rate : 192 kb/s
Channel(s) : 2 channels
Channel positions : Front: L R
Sampling rate : 48.0 kHz
Frame rate : 46.875 FPS (1024 SPF)
Compression mode : Lossy
Stream size : 114 MiB (6%)
Language : English
Default : Yes
Alternate group : 1

Скриншот c названием фильма

If your ratio falls below 0.3, you will not be able to download Torrents! More about the rating.

[erzsebet.pl].t124.torrent
Torrent: Registered   [ 2017-12-02 16:10 ]

Download .torrent

Download

19 KB

Status: checked
Completed: 16 times
Size: 1.88 GB
terms.php

#1

02-Dec-2017 16:10

[Profile]  [PM] 
Display posts:    

You cannot post new topics in this forum
You cannot reply to topics in this forum
You cannot edit your posts in this forum
You cannot delete your posts in this forum
You cannot vote in polls in this forum
You cannot attach files in this forum
You can download files in this forum
User agreement
For copyright holders
Advertise on this site

Скачайте на халяву через торрент на трекере erzsebet.pl

!ATTENTION!
The site does not give electronic versions of products, and is engaged only in a collecting and cataloguing of the references sent and published at a forum by our readers. If you are the legal owner of any submitted material and do not wish that the reference to it was in our catalogue, contact us and we shall immediately remove her. Files for an exchange on tracker are given by users of a site, and the administration does not bear the responsibility for their maintenance. The request to not fill in the files protected by copyrights, and also files of the illegal maintenance!