Рокки / Rocky (Джон Г. Эвилдсен / John G. Avildsen) [1976, США, спорт, драма, BDRip] AVO (Андрей Гаврилов) + AVO (Василий Горчаков) + 2xAVO (Леонид Володарский)

Reply to topic
DL-List and Torrent activity
Size:  2.34 GB   |    Registered:  3 years 3 months   |    Completed:  16 times

Seeder not seen: 3 years 3 months

 
   
 
 
Author Message

erzsebet.org ®

Longevity: 3 years 2 months

Posts: 47596

Post 02-Dec-2017 16:10

[Quote]

Рокки / Rocky
Страна: США
Жанр: спорт, драма
Год выпуска: 1976
Продолжительность: 01:59:35
Перевод: Авторский (одноголосый закадровый) Андрей Гаврилов
Перевод 2: Авторский (одноголосый закадровый) Василий Горчаков
Перевод 3: Авторский (одноголосый закадровый) Леонид Володарский (ранний)
Перевод 4: Авторский (одноголосый закадровый) Леонид Володарский (поздний) (отдельно)
Субтитры: нет
Режиссер: Джон Г. Эвилдсен / John G. Avildsen
В ролях: Сильвестр Сталлоне, Талия Шайр, Берт Янг, Карл Уэзерс, Бёрджесс Мередит, Тэйер Дэвид, Джо Спинелл, Джимми Гамбина, Билл Болдуин ст.
Описание: В 1975 году в небольшом городе Кенсингтон должен пройти боксерский поединок с участием Аполло "Костолома" Крида – мирового чемпиона. Практически накануне боя противник Аполло получает серьезную травму и не может участвовать в поединке. Однако Крид решает не отменять бой, а заменить своего противника на кого-нибудь из местных неизвестных боксеров. Такая акция привлечет к себе широкое внимание прессы, а рекламная компания сыграет на руку чемпиону, который фактически "дает шанс" прославиться никому не известному новичку. Его выбор падает на Рокки Бальбоа – не особо известного боксера, который живет в бедности и работает на мелкого мафиози, выбивая из должников деньги. Бывший боксер Микки Голдмилл решает помочь Рокки подготовиться к бою и проводит его через серию изнурительных тренировок. Никто не верит, что Рокки сможет продержаться против Аполло хотя бы один раунд, но Бальбоа удастся удивить зрителей и заставить их болеть за себя до последней минуты.....
Доп. информация: Выражаю благодарность Нордеру за синхронизации звуковых дорожек. За дороги с Горчаковым и Володарским благодарим vilkus.
Сэмпл: http://multi-up.com/1174530
Качество видео: BDRip (Исходник BDRemux 1080p)
Формат видео: AVI
Видео: XviD 73, 720x384, (1,85:1), 23,976 fps, 1621 Кбит/с, 8 бит, 0.25 bit/pixel
Аудио: Русский (АС3, 6 ch (Front: L C R, Side: L R, LFE), 48,0 KHz, 384 Kbps) (Андрей Гаврилов)
Аудио 2: Русский (АС3, 2 ch (Front: L R), 48,0 KHz, 192 Kbps) (Василий Горчаков)
Аудио 3: Русский (АС3, 6 ch (Front: L C R, Side: L R, LFE), 48,0 KHz, 384 Kbps) (Леонид Володарский - ранний)
Аудио 4: Русский (АС3, 2 ch (Front: L R), 48,0 KHz, 192 Kbps) (Леонид Володарский - поздний) (отдельно)

MediaInfo

Общее
Полное имя : D:\Видеофильмы\В и д е о\Рокки_(спорт, драма, 1976 год)_Leonard_Lew\Рокки_(спорт, драма, 1976 год)_Leonard_Lew.avi
Формат : AVI
Формат/Информация : Audio Video Interleave
Профиль формата : OpenDML
Размер файла : 2,18 Гбайт
Продолжительность : 1 ч. 59 м.
Общий поток : 2605 Кбит/сек
Программа кодирования : VirtualDubMod 1.5.10.2 (build 2540/release)
Библиотека кодирования : VirtualDubMod build 2540/release
Видео
Идентификатор : 0
Формат : MPEG-4 Visual
Профиль формата : Advanced [email protected]
Параметр BVOP формата : 2
Параметр QPel формата : Нет
Параметр GMC формата : Без точки перехода
Параметр матрицы формата : Выборочная
Идентификатор кодека : XVID
Идентификатор кодека/Подсказка : XviD
Продолжительность : 1 ч. 59 м.
Битрейт : 1621 Кбит/сек
Ширина : 720 пикселей
Высота : 384 пикселя
Соотношение сторон : 1,85:1
Частота кадров : 23,976 (23976/1000) кадра/сек
Цветовое пространство : YUV
Субдискретизация насыщенности : 4:2:0
Битовая глубина : 8 бит
Тип развёртки : Прогрессивная
Метод сжатия : С потерями
Бит/(Пиксели*Кадры) : 0.245
Размер потока : 1,35 Гбайт (62%)
Библиотека кодирования : XviD 73
Аудио #1
Идентификатор : 1
Формат : AC-3
Формат/Информация : Audio Coding 3
Расширение режима : CM (complete main)
Параметр Endianness формата : Big
Идентификатор кодека : 2000
Продолжительность : 1 ч. 59 м.
Вид битрейта : Постоянный
Битрейт : 384 Кбит/сек
Каналы : 6 каналов
Расположение каналов : Front: L C R, Side: L R, LFE
Частота : 48,0 КГц
Частота кадров : 31,250 кадров/сек (1536 spf)
Метод сжатия : С потерями
Размер потока : 328 Мбайт (15%)
Выравнивание : Разделение по промежуткам
Продолжительность промежутка : 42 мс. (1,00 видеокадр)
Время предзагрузки промежутка : 500 мс.
Аудио #2
Идентификатор : 2
Формат : AC-3
Формат/Информация : Audio Coding 3
Расширение режима : CM (complete main)
Параметр Endianness формата : Big
Идентификатор кодека : 2000
Продолжительность : 1 ч. 59 м.
Вид битрейта : Постоянный
Битрейт : 192 Кбит/сек
Каналы : 2 канала
Расположение каналов : Front: L R
Частота : 48,0 КГц
Частота кадров : 31,250 кадров/сек (1536 spf)
Метод сжатия : С потерями
Размер потока : 164 Мбайт (7%)
Выравнивание : Разделение по промежуткам
Продолжительность промежутка : 42 мс. (1,00 видеокадр)
Время предзагрузки промежутка : 500 мс.
Аудио #3
Идентификатор : 3
Формат : AC-3
Формат/Информация : Audio Coding 3
Расширение режима : CM (complete main)
Параметр Endianness формата : Big
Идентификатор кодека : 2000
Продолжительность : 1 ч. 59 м.
Вид битрейта : Постоянный
Битрейт : 384 Кбит/сек
Каналы : 6 каналов
Расположение каналов : Front: L C R, Side: L R, LFE
Частота : 48,0 КГц
Частота кадров : 31,250 кадров/сек (1536 spf)
Метод сжатия : С потерями
Размер потока : 328 Мбайт (15%)
Выравнивание : Разделение по промежуткам
Продолжительность промежутка : 42 мс. (1,00 видеокадр)
Время предзагрузки промежутка : 500 мс.

Скриншот c названием фильма

Скриншоты

[erzsebet.pl].t126.torrent
Torrent: Registered [ 2017-12-02 16:10 ] · BD0D12FA0E952167A4049AF077B39539BF599E95

Download .torrent

Download

12 KB

Status: checked
Completed: 16 times
Size: 2.34 GB
terms.php
[Profile] [PM]
Display posts:    
Reply to topic

Current time is: 02-Mar 22:52

All times are UTC ± 0



You cannot post new topics in this forum
You cannot reply to topics in this forum
You cannot edit your posts in this forum
You cannot delete your posts in this forum
You cannot vote in polls in this forum
You cannot attach files in this forum
You can download files in this forum