Автобусная остановка / Bus Stop (Джошуа Логан / Joshua Logan) [1956, США, комедия, HDRip] VO (дама) + Original Eng

Reply to topic
DL-List and Torrent activity
Size:  1.43 GB   |    Registered:  3 years 3 months   |    Completed:  16 times

Seeder not seen: 3 years 3 months

 
   
 
 
Author Message

erzsebet.org ®

Longevity: 3 years 2 months

Posts: 47596

Post 02-Dec-2017 16:10

[Quote]

Автобусная остановка / Bus Stop
Страна: США
Жанр: комедия
Год выпуска: 1956
Продолжительность: 01:34:28
Перевод: Одноголосый закадровый неизвестной Дамы с древней кассеты
Субтитры: нет
Оригинальная аудиодорожка: английский
Режиссер: Джошуа Логан /Joshua Logan/
В ролях: Мэрилин Монро /Marilyn Monroe/, Дон Мюррей /Don Murray/, Артур О'Коннелл /Arthur O'Connell/, Бетти Филд /Betty Field/, Айлин Хекарт /Eileen Heckart/, Роберт Брэй /Robert Bray/, Хоуп Лэнг /Hope Lange/, Ханс Конрид /Hans Conried/, Мэкс Шоуолтер /Max Showalter/, Хенри Слэйт /Henry Slate/
Рецензия Михаила Иванова: По пьесе Уильяма Инга (William Inge), прекрасно переделанной для экрана Джорджем Экселродом. Одна из самых лучших комедийных мелодрам с участием Монро смотрится сейчас несколько наивно, но... были именно такие вкусы. Монро создает энергичный и теплый портрет певички Шери, чьи мечты о Голливуде и славе прерываются реальностью города Феникс. Она тонко передает ранимость своей героини, ничуть не жертвуя блеском и сиянием магической красоты - многие зрители считают, что этой картиной она доказала свои актерские способности. В кафе "Синий Дракон" в Фениксе мы знакомимся с Бо (Дон Мюррэй за свой дебют в кино получил номинацию на "Оскар" за лучшую мужскую роль второго плана), разбитным ковбоем, приехавшим в город участвовать в родео. Он грубо заставляет своих шумных дружков замолчать, когда поет Шери, и получает в награду невинный поцелуй благодарности. С этого момента он решительно настроен взять ее в жены, несмотря на все ее протесты и презрение его верного дружка Верджила (Артур О Коннелл). Шери даже садится на автобус, чтобы бежать из города, но Бо отправляется следом. Автобус заносит снегом, и пассажиры вынуждены провести ночь в кафе, где происходит драка между водителем автобуса, защищающим пассажирку, и ковбоем, требующим эту женщину. Бо терпит постыдное поражение, он унижен. На следующий день, когда буря закончилась, Бо начинает понимать, что ничего не добьется, действуя как скотина.
Во время годичного отсутствия на экране Монро усердно училась актерскому мастерству в твердых руках легендарного Ли Страсберга, и это заметно. В картине следует отметить хорошо снятые сцены родео.
Доп. информация: исходник от kikilo102; перевод Дамы оцифровал и подготовил karlll
ещё она перевела Реку без возврата'54
Качество видео: HDRip ~Сэмпл~
Формат видео: AVI
Видео: 720x288 (2.50:1), 23.976 fps, XviD build 73 ~1767 kbps avg, 0.35 bit/pixel
Аудио 1: 48 kHz, AC3 Dolby Digital, 2/0 (L,R) ch, ~192 kbps - рус
Аудио 2: 48 kHz, AC3 Dolby Digital, 2/0 (L,R) ch, ~192 kbps - анг

MediaInfo

Формат : AVI
Формат/Информация : Audio Video Interleave
Размер файла : 1,43 Гбайт
Продолжительность : 1 ч. 34 м.
Общий поток : 2166 Кбит/сек
Название фильма : Bus Stop (1956)
Программа кодирования : VirtualDubMod 1.5.10.3 | www.virtualdub-fr.org || (build 2550/release)
Библиотека кодирования : VirtualDubMod build 2550/release
Правообладатель : Karl's Bayou Country
Видео
Идентификатор : 0
Формат : MPEG-4 Visual
Профиль формата : Advanced [email protected]
Параметр BVOP формата : 2
Параметр QPel формата : Нет
Параметр GMC формата : Без точки перехода
Параметр матрицы формата : Выборочная
Идентификатор кодека : XVID
Идентификатор кодека/Подсказка : XviD
Продолжительность : 1 ч. 34 м.
Битрейт : 1768 Кбит/сек
Ширина : 720 пикселей
Высота : 288 пикселей
Соотношение сторон : 2,500
Частота кадров : 23,976 кадра/сек
Цветовое пространство : YUV
Субдискретизация насыщенности : 4:2:0
Битовая глубина : 8 бит
Тип развёртки : Прогрессивная
Метод сжатия : С потерями
Бит/(Пиксели*Кадры) : 0.356
Размер потока : 1,17 Гбайт (82%)
Библиотека кодирования : XviD 73
Аудио #1
Идентификатор : 1
Формат : AC-3
Формат/Информация : Audio Coding 3
Расширение режима : CM (complete main)
Параметр Endianness формата : Big
Идентификатор кодека : 2000
Продолжительность : 1 ч. 34 м.
Вид битрейта : Постоянный
Битрейт : 192 Кбит/сек
Каналы : 2 канала
Расположение каналов : Front: L R
Частота : 48,0 КГц
Битовая глубина : 16 бит
Метод сжатия : С потерями
Размер потока : 130 Мбайт (9%)
Выравнивание : Разделение по промежуткам
Продолжительность промежутка : 42 мс. (1,00 видеокадр)
Время предзагрузки промежутка : 500 мс.
Заголовок : rus
Аудио #2
Идентификатор : 2
Формат : AC-3
Формат/Информация : Audio Coding 3
Расширение режима : CM (complete main)
Параметр Endianness формата : Big
Идентификатор кодека : 2000
Продолжительность : 1 ч. 34 м.
Вид битрейта : Постоянный
Битрейт : 192 Кбит/сек
Каналы : 2 канала
Расположение каналов : Front: L R
Частота : 48,0 КГц
Битовая глубина : 16 бит
Метод сжатия : С потерями
Размер потока : 130 Мбайт (9%)
Выравнивание : Разделение по промежуткам
Продолжительность промежутка : 42 мс. (1,00 видеокадр)
Время предзагрузки промежутка : 500 мс.
Заголовок : eng

Скриншоты

[erzsebet.pl].t127.torrent
Torrent: Registered [ 2017-12-02 16:10 ] · 8BBE806D9DB76180438485F016E13A9E72C6E36F

Download .torrent

Download

15 KB

Status: checked
Completed: 16 times
Size: 1.43 GB
terms.php
[Profile] [PM]
Display posts:    
Reply to topic

Current time is: 05-Mar 04:23

All times are UTC ± 0



You cannot post new topics in this forum
You cannot reply to topics in this forum
You cannot edit your posts in this forum
You cannot delete your posts in this forum
You cannot vote in polls in this forum
You cannot attach files in this forum
You can download files in this forum