Анна из Бруклина / Стремительная и сексуальная / Anna di Brooklyn / Anna von Brooklyn / Fast and sexy (Витторио Де Сика / Vittorio De Sica, Карло Ластрикати / Carlo Lastricati) [1958, Италия, Франция, Комедия, DVDRip] [Немецкая версия] VO (Urasiko)

DL-List and Torrent activity
Size:  1.37 GB   |    Registered:  2 years 9 months   |    Completed:  16 times
Seeders:  9   Leechers:  1   Show peers in full details
 
   
 
 

erzsebet.org ®

Longevity:
2 years 9 months
Posts:
47596

[Quote] 

Анна из Бруклина / Стремительная и сексуальная / Anna di Brooklyn / Anna von Brooklyn / Fast and sexy / Немецкая версия
Страна: Италия, Франция
Жанр: Комедия
Год выпуска: 1958
Продолжительность: 01:32:07
Перевод: Одноголосый закадровый Urasiko
Субтитры: русские
Оригинальная аудиодорожка: нет
Режиссер: Витторио Де Сика / Vittorio De Sica, Карло Ластрикати / Carlo Lastricati
В ролях: Джина Лоллобриджида, Витторио Де Сика, Дэйл Робертсон, Амедео Надцари, Карла Мачеллони, Габриэлла Паллотта, Пеппино Де Филиппо, Луиджи Де Филиппо, Теренс Хилл, Клелия Матания, Аугуста Киолли
Описание: Анна - молодая, богатая вдова возвращается домой в Италию из Америки. Приезд красавицы на роскошной машине является большим событием для маленькой деревушке. К тому же, известие о том что Анна вновь собирается выйти замуж создаёт переполох среди холостяков.
Доп. информация: Релиз
Перевод немецкой версии Urasiko
Фильм снимался для разных стран в различных версиях. Раздача американской версии http://erzsebet.org/forum/viewtopic.php?t=3756176
Сэмпл: http://multi-up.com/1174397
Качество видео: DVDRip
Формат видео: AVI
Видео: 704x288 (2.44:1), 25 fps, XviD MPEG-4, 1731 kbps avg, 0.34 bit/pixel
Аудио: Русский AC3 Dolby Digital, 2/0 (L,R) ch, 48 kHz, 192 kbps
Аудио2: Немецкий AC3 Dolby Digital, 2/0 (L,R) ch, 48 kHz, 192 kbps
Формат субтитров: softsub (SRT)
Доп. информация о субтитрах: Только на песню

MediaInfo

Общее
Полное имя : E:\CD\Anna.von.Brooklyn.1958\Anna.von.Brooklyn.1958.DVDRip.avi
Формат : AVI
Формат/Информация : Audio Video Interleave
Размер файла : 1,37 Гбайт
Продолжительность : 1 ч. 32 м.
Общий поток : 2131 Кбит/сек
Программа кодирования : VirtualDubMod 1.5.10.2 (build 2540/release)
Библиотека кодирования : VirtualDubMod build 2540/release
Видео
Идентификатор : 0
Формат : MPEG-4 Visual
Профиль формата : Advanced [email protected]
Параметр BVOP формата : 1
Параметр QPel формата : Нет
Параметр GMC формата : Без точки перехода
Параметр матрицы формата : Выборочная
Идентификатор кодека : XVID
Идентификатор кодека/Подсказка : XviD
Продолжительность : 1 ч. 32 м.
Битрейт : 1732 Кбит/сек
Ширина : 704 пикселя
Высота : 288 пикселей
Соотношение сторон : 2,40:1
Частота кадров : 25,000 кадров/сек
Цветовое пространство : YUV
Субдискретизация насыщенности : 4:2:0
Битовая глубина : 8 бит
Тип развёртки : Прогрессивная
Метод сжатия : С потерями
Бит/(Пиксели*Кадры) : 0.342
Размер потока : 1,11 Гбайт (81%)
Библиотека кодирования : XviD 64
Аудио #1
Идентификатор : 1
Формат : AC-3
Формат/Информация : Audio Coding 3
Расширение режима : CM (complete main)
Параметр Endianness формата : Big
Идентификатор кодека : 2000
Продолжительность : 1 ч. 32 м.
Вид битрейта : Постоянный
Битрейт : 192 Кбит/сек
Каналы : 2 канала
Расположение каналов : Front: L R
Частота : 48,0 КГц
Частота кадров : 31,250 кадров/сек (1536 spf)
Метод сжатия : С потерями
Размер потока : 127 Мбайт (9%)
Выравнивание : Разделение по промежуткам
Продолжительность промежутка : 40 мс. (1,00 видеокадр)
Время предзагрузки промежутка : 500 мс.
Аудио #2
Идентификатор : 2
Формат : AC-3
Формат/Информация : Audio Coding 3
Расширение режима : CM (complete main)
Параметр Endianness формата : Big
Идентификатор кодека : 2000
Продолжительность : 1 ч. 32 м.
Вид битрейта : Постоянный
Битрейт : 192 Кбит/сек
Каналы : 2 канала
Расположение каналов : Front: L R
Частота : 48,0 КГц
Частота кадров : 31,250 кадров/сек (1536 spf)
Метод сжатия : С потерями
Размер потока : 127 Мбайт (9%)
Выравнивание : Разделение по промежуткам
Продолжительность промежутка : 40 мс. (1,00 видеокадр)
Время предзагрузки промежутка : 500 мс.

Скриншот c названием фильма

Скриншоты

If your ratio falls below 0.3, you will not be able to download Torrents! More about the rating.

[erzsebet.pl].t128.torrent
Torrent: Registered   [ 2017-12-02 16:10 ]

Download .torrent

Download

14 KB

Status: checked
Completed: 16 times
Size: 1.37 GB
terms.php

#1

02-Dec-2017 16:10

[Profile]  [PM] 
Display posts:    

You cannot post new topics in this forum
You cannot reply to topics in this forum
You cannot edit your posts in this forum
You cannot delete your posts in this forum
You cannot vote in polls in this forum
You cannot attach files in this forum
You can download files in this forum
User agreement
For copyright holders
Advertise on this site

Скачайте на халяву через торрент на трекере erzsebet.pl

!ATTENTION!
The site does not give electronic versions of products, and is engaged only in a collecting and cataloguing of the references sent and published at a forum by our readers. If you are the legal owner of any submitted material and do not wish that the reference to it was in our catalogue, contact us and we shall immediately remove her. Files for an exchange on tracker are given by users of a site, and the administration does not bear the responsibility for their maintenance. The request to not fill in the files protected by copyrights, and also files of the illegal maintenance!