Негодяй / Хулиган / Le voyou (Клод Лелуш / Claude Lelouch) [1970, Франция, Италия, Триллер, криминал, DVDRip] VO (Urasiko) + Original Fre

DL-List and Torrent activity
Size:  1.37 GB   |    Registered:  2 years 9 months   |    Completed:  16 times
Seeders:  15  
 
   
 
 

erzsebet.org ®

Longevity:
2 years 9 months
Posts:
47596

[Quote] 

Негодяй / Хулиган / Le voyou
Страна: Франция, Италия
Жанр: Триллер, криминал
Год выпуска: 1970
Продолжительность: 01:55:04
Перевод: Одноголосый закадровый Urasiko
Субтитры: нет
Оригинальная аудиодорожка: французский
Режиссер: Клод Лелуш / Claude Lelouch
В ролях: Жан-Луи Трентиньян, Даниель Делорм, Шарль Жерар, Кристин Лелуш, Ив Робер, Жюдит Магр, Альдо Маччоне, Поль Ле Персон, Амиду, Жерар Сир, Жак Дониоль-Валькроз, Габриэлла Джорджелли, Лучиано Пигоцци, Миммо Пальмара, Пьер Циммер, Шарль Деннер, Саша Дистель, Александра Мнушкин, Морис Озель, Клод Барруа, Пьер Колле, Жан Колломб
Описание: История про обаятельного хулигана Симона (неотразимый молодой Жан-Луи Трентиньян), которого прозвали «швейцарцем» за точность, с которой он совершает свои «идеальные» преступления. Сбежав из тюрьмы, он с легкостью вызывает «желание» у случайной женщины укрывать его 2 недели, затем встречается с бывшей возлюбленной Мартиной, у которой от него есть дочь и которая вышла замуж за крупного бизнесмена, и другом Шарлем. Троица ловко похищает мальчика, чтобы требовать от банка, в котором работает отец ребенка (Шарль Деннер), 1 миллион долларов. Банк платит, но дальше преступление идет не так, как планировалось... Тем занятнее наблюдать, как талантливый мошенник сумеет закончить историю…
Доп. информация: Релиз
Благодарности за перевод адресуем imvolk-13
Раздача с субтитрами http://erzsebet.org/forum/viewtopic.php?t=5356609
Сэмпл: http://multi-up.com/1173983
Качество видео: DVDRip
Формат видео: AVI
Видео: 640x400 (1.60:1), 25 fps, XviD build 50, 1307 kbps avg, 0.20 bit/pixel
Аудио: Русский AC3 Dolby Digital, 2/0 (L,R) ch, 48 kHz, 192 kbps
Аудио 2: Французский AC3 Dolby Digital, 2/0 (L,R) ch, 48 kHz, 192 kbps

MediaInfo

Общее
Полное имя : E:\CD\Rip Le voyou\Le Voyou Ru.avi
Формат : AVI
Формат/Информация : Audio Video Interleave
Размер файла : 1,37 Гбайт
Продолжительность : 1 ч. 55 м.
Общий поток : 1707 Кбит/сек
Программа кодирования : VirtualDubMod 1.5.10.2 (build 2540/release)
Библиотека кодирования : VirtualDubMod build 2540/release
Видео
Идентификатор : 0
Формат : MPEG-4 Visual
Профиль формата : Advanced [email protected]
Параметр BVOP формата : 1
Параметр QPel формата : Нет
Параметр GMC формата : Без точки перехода
Параметр матрицы формата : Выборочная
Идентификатор кодека : XVID
Идентификатор кодека/Подсказка : XviD
Продолжительность : 1 ч. 55 м.
Битрейт : 1308 Кбит/сек
Ширина : 640 пикселей
Высота : 400 пикселей
Соотношение сторон : 16:10
Частота кадров : 25,000 кадров/сек
Цветовое пространство : YUV
Субдискретизация насыщенности : 4:2:0
Битовая глубина : 8 бит
Тип развёртки : Прогрессивная
Метод сжатия : С потерями
Бит/(Пиксели*Кадры) : 0.204
Размер потока : 1,05 Гбайт (77%)
Библиотека кодирования : XviD 1.2.1 (UTC 2008-12-04)
Аудио #1
Идентификатор : 1
Формат : AC-3
Формат/Информация : Audio Coding 3
Расширение режима : CM (complete main)
Параметр Endianness формата : Big
Идентификатор кодека : 2000
Продолжительность : 1 ч. 55 м.
Вид битрейта : Постоянный
Битрейт : 192 Кбит/сек
Каналы : 2 канала
Расположение каналов : Front: L R
Частота : 48,0 КГц
Частота кадров : 31,250 кадров/сек (1536 spf)
Метод сжатия : С потерями
Размер потока : 158 Мбайт (11%)
Выравнивание : Разделение по промежуткам
Продолжительность промежутка : 40 мс. (1,00 видеокадр)
Время предзагрузки промежутка : 500 мс.
Язык : Russian
Аудио #2
Идентификатор : 2
Формат : AC-3
Формат/Информация : Audio Coding 3
Расширение режима : CM (complete main)
Параметр Endianness формата : Big
Идентификатор кодека : 2000
Продолжительность : 1 ч. 55 м.
Вид битрейта : Постоянный
Битрейт : 192 Кбит/сек
Каналы : 2 канала
Расположение каналов : Front: L R
Частота : 48,0 КГц
Частота кадров : 31,250 кадров/сек (1536 spf)
Метод сжатия : С потерями
Размер потока : 158 Мбайт (11%)
Выравнивание : Разделение по промежуткам
Продолжительность промежутка : 40 мс. (1,00 видеокадр)
Время предзагрузки промежутка : 500 мс.
Язык : Francais

Скриншот c названием фильма

Скриншоты

If your ratio falls below 0.3, you will not be able to download Torrents! More about the rating.

[erzsebet.pl].t130.torrent
Torrent: Registered   [ 2017-12-02 16:10 ]

Download .torrent

Download

14 KB

Status: checked
Completed: 16 times
Size: 1.37 GB
terms.php

#1

02-Dec-2017 16:10

[Profile]  [PM] 
Display posts:    

You cannot post new topics in this forum
You cannot reply to topics in this forum
You cannot edit your posts in this forum
You cannot delete your posts in this forum
You cannot vote in polls in this forum
You cannot attach files in this forum
You can download files in this forum
User agreement
For copyright holders
Advertise on this site

Скачайте на халяву через торрент на трекере erzsebet.pl

!ATTENTION!
The site does not give electronic versions of products, and is engaged only in a collecting and cataloguing of the references sent and published at a forum by our readers. If you are the legal owner of any submitted material and do not wish that the reference to it was in our catalogue, contact us and we shall immediately remove her. Files for an exchange on tracker are given by users of a site, and the administration does not bear the responsibility for their maintenance. The request to not fill in the files protected by copyrights, and also files of the illegal maintenance!