Араб / The Arab (Рекс Ингрэм / Rex Ingram) [1924, США, драма, VHSRip] Интертитры (Rus)

Reply to topic
DL-List and Torrent activity
Size:  1.32 GB   |    Registered:  3 years 3 months   |    Completed:  16 times

Seeder not seen: 3 years 3 months

 
   
 
 
Author Message

erzsebet.org ®

Longevity: 3 years 2 months

Posts: 47596

Post 02-Dec-2017 16:10

[Quote]

Араб / The Arab
Страна: США
Студия: Metro-Goldwyn Pictures Corporation
Жанр: драма
Год выпуска: 1924
Продолжительность: 01:03:04
Перевод: Интертитры
Интертитры: русские
Оригинальная аудиодорожка: музыкальное сопровождение
Режиссер: Рекс Ингрэм / Rex Ingram
В ролях: Рамон Новарро, Элис Терри, Макс Максюдиан, Жан Де Лимур, Флорика Александреско, Адельки Мильяр, Юста Урибе, Джерролд Робертшо, Пол Франчески
Описание: Джамил - солдат в войсках бедуинов во время войны между Сирией и Турцией, покинувший свой отряд. В глухой деревушке он встречается с американским миссионером, доктором Гильбертом и его дочерью Мэри, которые обучают детей в сиротском приюте. На деревню нападают турки, и местный губернатор, стремясь умилостивить захватчиков, намеревается передать им детей на верную гибель, маскируя свои намерения отъездом их в Дамаск для безопасности. Бедуины выходят на сцену и доказывают, что Джамил - сын племенного вождя. После смерти отца Джамил становится новым вождем племени и принимает на себя ответственность. Рискуя своей жизнью, он спасает детей, побеждает турок и местного губернатора и добивается любви Мэри.

Интересно

Фильм снят по пьесе Эдгара Селвина, написанной в 1911 году.
Это один из 12 сохранившихся фильмов с участием Элис Терри.
Копии фильма имеются в киноархиве Чехословакии и в российском архиве Госфильмофонда, где фильм сохранился с русскими интертитрами.
В октябре 2010 года его цифровая копия была передана в Библиотеку Конгресса. Еще одна копия находится в кинематографическом королевском дворце в Брюсселе.
Фильм снимался в Северной Африке (в нынешних Тунисе и Алжире).
В 1933 году был снят звуковой вариант этого же фильма под названием "Варвар", главные роли сыграли Рамон Новарро и Мирна Лой.

Дополнительная информация по релизу

Раздача создана по просьбе larisa_7, спасибо ей за всю информацию по раздаче.
Музыкальное сопровождение подобрано Мариной Комаровой.
--Фильм урезан. Неизвестно, существует ли полная копия.
Качество низкое. Скачивайте, пожалуйста, сэмпл и смотрите скриншоты.
--КиноПоискIMDb--Сэмпл: http://multi-up.com/1173924
Качество видео: VHSRip
Формат видео: AVI
Видео: XviD, [email protected] (1.33:1), 25 fps, 2798 kbps
Аудио: AC3, 48.0 KHz, 2 ch., 192 Kbps (музыкальное сопровождение)

MediaInfo

Общее
Полное имя : F:\РАЗДАЧИ\THE ARAB (1924).avi
Формат : AVI
Формат/Информация : Audio Video Interleave
Размер файла : 1,32 Гбайт
Продолжительность : 1 ч. 3 м.
Общий поток : 2999 Кбит/сек
Программа кодирования : VirtualDubModRus 1.5.10.2 (build 2542/release)
Библиотека кодирования : VirtualDubMod build 2542/release
Видео
Идентификатор : 0
Формат : MPEG-4 Visual
Профиль формата : [email protected]
Параметр BVOP формата : Нет
Параметр QPel формата : Нет
Параметр GMC формата : Без точки перехода
Параметр матрицы формата : Default (H.263)
Идентификатор кодека : XVID
Идентификатор кодека/Подсказка : XviD
Продолжительность : 1 ч. 3 м.
Битрейт : 2798 Кбит/сек
Ширина : 720 пикселей
Высота : 576 пикселей
Соотношение сторон : 4:3
Частота кадров : 25,000 кадров/сек
Стандарт вещания : PAL
Цветовое пространство : YUV
Субдискретизация насыщенности : 4:2:0
Битовая глубина : 8 бит
Тип развёртки : Прогрессивная
Метод сжатия : С потерями
Бит/(Пиксели*Кадры) : 0.270
Размер потока : 1,23 Гбайт (93%)
Библиотека кодирования : XviD 64
Аудио
Идентификатор : 1
Формат : AC-3
Формат/Информация : Audio Coding 3
Параметр Endianness формата : Big
Идентификатор кодека : 2000
Продолжительность : 1 ч. 3 м.
Вид битрейта : Постоянный
Битрейт : 192 Кбит/сек
Каналы : 2 канала
Расположение каналов : Front: L R
Частота : 48,0 КГц
Частота кадров : 31,250 кадров/сек (1536 spf)
Битовая глубина : 16 бит
Метод сжатия : С потерями
Размер потока : 86,6 Мбайт (6%)
Выравнивание : Разделение по промежуткам
Продолжительность промежутка : 40 мс. (1,00 видеокадр)
Время предзагрузки промежутка : 500 мс.
ServiceKind/String : Complete Main

avdump

File: F:\РАЗДАЧИ\THE ARAB (1924).avi
Duration: 01:03:04 (3783.84)
Track #1: video
lang: Unknown (1)
codc: XVID (XviD0064) -> XviD (17)
reso: 720x576 (1.333) -> Unknown (aka not common) anamorphic
fram: 25 fps
rate: 2798 kbps (2797.6)
dura: 01:03:04 (3783.84)
size: 1.23 GB (1323208639)
Track #2: audio
lang: Unknown (1)
codc: AC3 -> AC3 (2)
chan: 2 -> Stereo
samp: 48000 Hz
rate: 192 kbps (192.00)
dura: 01:03:03 (3783.49)
size: 86.60 MB (90803712)
Sizes: (check sanity)
disk: 1.32 GB (1418610688)
trac: 1.32 GB (1414012351) [based on track size]
bitr: 1.32 GB (1414020625) [based on bitrate]
tdif: 4.39 MB (4598337) 0.32%
bdif: 4.38 MB (4590062) 0.32%

Скриншоты

[erzsebet.pl].t132.torrent
Torrent: Registered [ 2017-12-02 16:10 ] · 1CEC767D21682DC5E101DC383368FF73F3504861

Download .torrent

Download

14 KB

Status: checked
Completed: 16 times
Size: 1.32 GB
terms.php
[Profile] [PM]
Display posts:    
Reply to topic

Current time is: 03-Mar 12:22

All times are UTC ± 0



You cannot post new topics in this forum
You cannot reply to topics in this forum
You cannot edit your posts in this forum
You cannot delete your posts in this forum
You cannot vote in polls in this forum
You cannot attach files in this forum
You can download files in this forum