Рокки 2 / Rocky II (Сильвестр Сталлоне / Sylvester Stallone) [1979, США, спорт, драма, BDRip] AVO (Андрей Гаврилов) + AVO (Василий Горчаков) + AVO (Леонид Володарский) + VO (Леонид Векшин - VHS)

DL-List and Torrent activity
Size:  2.48 GB   |    Registered:  2 years 9 months   |    Completed:  16 times
Seeders:  4  
 
   
 
 

erzsebet.org ®

Longevity:
2 years 9 months
Posts:
47596

[Quote] 

Рокки 2 / Rocky II
Страна: США
Жанр: спорт, драма
Год выпуска: 1979
Продолжительность: 01:59:10
Перевод: Авторский (одноголосый закадровый) Андрей Гаврилов
Перевод 2: Авторский (одноголосый закадровый) Василий Горчаков
Перевод 3: Авторский (одноголосый закадровый) Леонид Володарский (отдельно)
Перевод 4: Одноголосый закадровый Леонид Векшин (VHS - отдельно)
Субтитры: нет
Режиссер: Сильвестр Сталлоне / Sylvester Stallone
В ролях: Сильвестр Сталлоне, Талия Шайр, Берт Янг, Карл Уэзерс, Бёрджесс Мередит, Тони Бертон, Джо Спинелл, Леонард Гейнс, Сильвия Милс
Описание: Проиграв поединок с Апполо Кридом в конце первой части, Рокки Бальбоа залечивает раны. Апполо, несмотря на выигранное чемпионское звание, желает ещё одного матча, чтобы поквитаться за полученные раны, однако Рокки отказывается из-за угрозы потерять зрение. Рокки принимает решение покинуть мир бокса. Теперь Рокки боксёр на покое, он женится на Адриан, покупает новый дом и автомобиль. Однако его попытки устроится на работу не приводят ни к чему: из-за недостатка образования он не получает хорошую работу, а, проработав короткое время грузчиком, он попадает под сокращение. Его единственное призвание — бокс, и когда Апполо вновь приходит к нему с требованием реванша, Рокки соглашается. Но Рокки недостаточно хорошо подготовлен, в то время как его противник силён, как никогда, а беременная Адриан противится его решению вернуться....
Доп. информация: Выражаю благодарность Нордеру за синхронизацию звуковой дорожки. За дорожку с Горчаковым благодарим bobahoss за VHS благодарим sao89.
Сэмпл: http://multi-up.com/1173901
Качество видео: BDRip (Rokki.Antologij.1976-1990.AVC.Blu-ray.1080p.HDCLUB )
Формат видео: AVI
Видео: XviD, 704x384, (1,85:1), 23,976 fps, 2161 Кбит/с, 8 бит, 0.33 bit/pixel
Аудио: Русский (АС3, 2 ch (Front: L R), 48,0 KHz, 224 Kbps)
Аудио 2: Русский (АС3, 2 ch (Front: L R), 48,0 KHz, 192 Kbps)
Аудио 3: Русский (АС3, 2 ch (Front: L R), 48,0 KHz, 192 Kbps) (отдельно)
Аудио 4: Русский (АС3, 2 ch (Front: L R), 48,0 KHz, 192 Kbps) (отдельно)

MediaInfo

Общее
Полное имя : D:\Видеофильмы\В и д е о\Рокки_2_(спорт, драма, 1979 год)_Leonard_Lew\Рокки_2_(спорт, драма, 1979 год)_Leonard_Lew.avi
Формат : AVI
Формат/Информация : Audio Video Interleave
Профиль формата : OpenDML
Размер файла : 2,16 Гбайт
Продолжительность : 1 ч. 59 м.
Общий поток : 2595 Кбит/сек
Программа кодирования : VirtualDubMod 1.5.10.2 (build 2540/release)
Библиотека кодирования : VirtualDubMod build 2540/release
Видео
Идентификатор : 0
Формат : MPEG-4 Visual
Профиль формата : Advanced [email protected]
Параметр BVOP формата : 1
Параметр QPel формата : Нет
Параметр GMC формата : Без точки перехода
Параметр матрицы формата : Выборочная
Идентификатор кодека : XVID
Идентификатор кодека/Подсказка : XviD
Продолжительность : 1 ч. 59 м.
Битрейт : 2161 Кбит/сек
Ширина : 704 пикселя
Высота : 384 пикселя
Соотношение сторон : 1,85:1
Частота кадров : 23,976 (23976/1000) кадра/сек
Цветовое пространство : YUV
Субдискретизация насыщенности : 4:2:0
Битовая глубина : 8 бит
Тип развёртки : Прогрессивная
Метод сжатия : С потерями
Бит/(Пиксели*Кадры) : 0.333
Размер потока : 1,80 Гбайт (83%)
Библиотека кодирования : XviD 1.2.1 (UTC 2008-12-04)
Аудио #1
Идентификатор : 1
Формат : AC-3
Формат/Информация : Audio Coding 3
Расширение режима : CM (complete main)
Параметр Endianness формата : Big
Идентификатор кодека : 2000
Продолжительность : 1 ч. 59 м.
Вид битрейта : Постоянный
Битрейт : 224 Кбит/сек
Каналы : 2 канала
Расположение каналов : Front: L R
Частота : 48,0 КГц
Частота кадров : 31,250 кадров/сек (1536 spf)
Метод сжатия : С потерями
Размер потока : 191 Мбайт (9%)
Выравнивание : Разделение по промежуткам
Продолжительность промежутка : 42 мс. (1,00 видеокадр)
Время предзагрузки промежутка : 500 мс.
Аудио #2
Идентификатор : 2
Формат : AC-3
Формат/Информация : Audio Coding 3
Расширение режима : CM (complete main)
Параметр Endianness формата : Big
Идентификатор кодека : 2000
Продолжительность : 1 ч. 59 м.
Вид битрейта : Постоянный
Битрейт : 192 Кбит/сек
Каналы : 2 канала
Расположение каналов : Front: L R
Частота : 48,0 КГц
Частота кадров : 31,250 кадров/сек (1536 spf)
Метод сжатия : С потерями
Размер потока : 164 Мбайт (7%)
Выравнивание : Разделение по промежуткам
Продолжительность промежутка : 42 мс. (1,00 видеокадр)
Время предзагрузки промежутка : 500 мс.

Скриншот c названием фильма

Скриншоты

If your ratio falls below 0.3, you will not be able to download Torrents! More about the rating.

[erzsebet.pl].t133.torrent
Torrent: Registered   [ 2017-12-02 16:10 ]

Download .torrent

Download

13 KB

Status: checked
Completed: 16 times
Size: 2.48 GB
terms.php

#1

02-Dec-2017 16:10

[Profile]  [PM] 
Display posts:    

You cannot post new topics in this forum
You cannot reply to topics in this forum
You cannot edit your posts in this forum
You cannot delete your posts in this forum
You cannot vote in polls in this forum
You cannot attach files in this forum
You can download files in this forum
User agreement
For copyright holders
Advertise on this site

Скачайте на халяву через торрент на трекере erzsebet.pl

!ATTENTION!
The site does not give electronic versions of products, and is engaged only in a collecting and cataloguing of the references sent and published at a forum by our readers. If you are the legal owner of any submitted material and do not wish that the reference to it was in our catalogue, contact us and we shall immediately remove her. Files for an exchange on tracker are given by users of a site, and the administration does not bear the responsibility for their maintenance. The request to not fill in the files protected by copyrights, and also files of the illegal maintenance!