Собачья жизнь / Vita da cani (Марио Моничелли / Mario Monicelli, Стено / Steno) [1950, Италия, драма, трагикомедия, DVDRip] MVO (Петербург 5 канал) + Original Ita

DL-List and Torrent activity
Size:  1.46 GB   |    Registered:  2 years 9 months   |    Completed:  16 times
Seeders:  2  
 
   
 
 

erzsebet.org ®

Longevity:
2 years 9 months
Posts:
47596

[Quote] 

Собачья жизнь / Vita da cani Страна: Италия
Жанр: драма, трагикомедия
Год выпуска: 1950
Продолжительность: 01:39:35
Перевод: Профессиональный (многоголосый закадровый) - Петербург 5 канал
Субтитры: нет
Оригинальная аудиодорожка: итальянская
Режиссер: Марио Моничелли / Mario Monicelli, Стено / Steno
В ролях: Альдо Фабрици, Джина Лоллобриджида, Делия Скала, Тамара Леес, Марчелло Мастроянни, Giovanni Barrella, Бруно Корелли, Энцо Фурлай, Энцо Маджо, Мишель Маласпина, Паскуале Мисиано.
Описание: Красавица Франка уходит от своего бедного жениха Карло: ей надоела нищенская жизнь. Она устраивается открывать занавес в варьете и мечтает стать звездой. Весь театр держится на актёре и хозяине Нино Мартони. Труппе приходится много работать и постоянно ездить на гастроли, чтобы хоть как-то сводить концы с концами и заработать. В одной из поездок Мартони спасает девушку, которую разыскивает полиция, влюбляется в неё и делает её звездой сцены. Тем временем Франка находит себе богатого жениха...

Доп. информация: Исходник (DVD5) позаимствован у Master_Bum, Спасибо!
Особая благодарность - за оцифровку перевода телекомпании «Петербург 5 канал» уходит Hel_ka67
DVDRip и сведение звука выполнены Arle-kino

Качество видео: DVDRip
Формат видео: AVI
Видео: 704x528 (1.33:1), 25 fps, XviD build 50 ~1792 kbps avg, 0.19 bit/pixel
Аудио 1: 48 kHz, AC3 Dolby Digital, 1/0 (C) ch, ~96 kbps - rus
Аудио 2: 48 kHz, AC3 Dolby Digital, 2/0 (L,R) ch, ~192 kbps - ital

MediaInfo

General
Complete name : D:\Public\Vita da cani (1950) DVDRip - rus, ital.avi
Format : AVI
Format/Info : Audio Video Interleave
File size : 1.46 GiB
Duration : 1 h 39 min
Overall bit rate : 2 096 kb/s
Writing application : VirtualDubMod 1.5.10.2 (build 2540/release)
Writing library : VirtualDubMod build 2540/release
Video
ID : 0
Format : MPEG-4 Visual
Format profile : Advanced [email protected]
Format settings, BVOP : 1
Format settings, QPel : No
Format settings, GMC : No warppoints
Format settings, Matrix : Default (MPEG)
Codec ID : XVID
Codec ID/Hint : XviD
Duration : 1 h 39 min
Bit rate : 1 794 kb/s
Width : 704 pixels
Height : 528 pixels
Display aspect ratio : 4:3
Frame rate : 25.000 FPS
Color space : YUV
Chroma subsampling : 4:2:0
Bit depth : 8 bits
Scan type : Progressive
Compression mode : Lossy
Bits/(Pixel*Frame) : 0.193
Stream size : 1.25 GiB (86%)
Writing library : XviD 1.2.1 (UTC 2008-12-04)
Audio #1
ID : 1
Format : AC-3
Format/Info : Audio Coding 3
Format settings, Endianness : Big
Codec ID : 2000
Duration : 1 h 39 min
Bit rate mode : Constant
Bit rate : 96.0 kb/s
Channel(s) : 1 channel
Channel positions : Front: C
Sampling rate : 48.0 kHz
Frame rate : 31.250 FPS (1536 SPF)
Bit depth : 16 bits
Compression mode : Lossy
Stream size : 68.4 MiB (5%)
Alignment : Split accross interleaves
Interleave, duration : 40 ms (1.00 video frame)
Interleave, preload duratio : 500 ms
Title : rus
Service kind : Complete Main
Audio #2
ID : 2
Format : AC-3
Format/Info : Audio Coding 3
Format settings, Endianness : Big
Codec ID : 2000
Duration : 1 h 39 min
Bit rate mode : Constant
Bit rate : 192 kb/s
Channel(s) : 2 channels
Channel positions : Front: L R
Sampling rate : 48.0 kHz
Frame rate : 31.250 FPS (1536 SPF)
Bit depth : 16 bits
Compression mode : Lossy
Stream size : 137 MiB (9%)
Alignment : Split accross interleaves
Interleave, duration : 40 ms (1.00 video frame)
Interleave, preload duratio : 500 ms
Title : ital
Service kind : Complete Main

Скриншот c названием фильма

Скриншоты

If your ratio falls below 0.3, you will not be able to download Torrents! More about the rating.

[erzsebet.pl].t137.torrent
Torrent: Registered   [ 2017-12-02 16:10 ]

Download .torrent

Download

15 KB

Status: checked
Completed: 16 times
Size: 1.46 GB
terms.php

#1

02-Dec-2017 16:10

[Profile]  [PM] 
Display posts:    

You cannot post new topics in this forum
You cannot reply to topics in this forum
You cannot edit your posts in this forum
You cannot delete your posts in this forum
You cannot vote in polls in this forum
You cannot attach files in this forum
You can download files in this forum
User agreement
For copyright holders
Advertise on this site

Скачайте на халяву через торрент на трекере erzsebet.pl

!ATTENTION!
The site does not give electronic versions of products, and is engaged only in a collecting and cataloguing of the references sent and published at a forum by our readers. If you are the legal owner of any submitted material and do not wish that the reference to it was in our catalogue, contact us and we shall immediately remove her. Files for an exchange on tracker are given by users of a site, and the administration does not bear the responsibility for their maintenance. The request to not fill in the files protected by copyrights, and also files of the illegal maintenance!