Охотник на оленей / The Deer Hunter (Майкл Чимино / Michael Cimino) [1978, США, Великобритания, драма, военный, HDRip] AVO (Михаил Иванов)

DL-List and Torrent activity
Size:  2.17 GB   |    Registered:  2 years 9 months   |    Completed:  16 times
Seeders:  2   Leechers:  1   Show peers in full details
 
   
 
 

erzsebet.org ®

Longevity:
2 years 9 months
Posts:
47596

[Quote] 

Охотник на оленей / The Deer Hunter
Страна: США, Великобритания
Жанр: драма, военный
Год выпуска: 1978
Продолжительность: 03:03:43
Перевод: Авторский (одноголосый закадровый) Михаил Иванов
Субтитры: нет
Режиссер: Майкл Чимино / Michael Cimino
В ролях: Роберт Де Ниро, Мэрил Стрип, Кристофер Уокен, Джон Казале, Джон Сэвадж, Джордж Дзундза, Чак Эспегрен, Ширли Столер, Рутанья Алда
Описание: В фильме рассказывается о судьбе трёх друзей, американцев русского происхождения, отправившихся на войну во Вьетнам. Фильм охватывает три периода их жизни: мирная жизнь в небольшом американском городке, работа на заводе, гуляние на свадьбе, охота с друзьями; затем война, кровь, плен, побег и кошмары, разрушение всех представлений о жизни; и затем возвращение в мирную жизнь, попытка снова адаптироваться и влиться в нормальное общество. Один из друзей возвращается из Вьетнама инвалидом, он поселяется в госпитале, боясь вернуться домой к своей молодой жене. Другой, чья психика серьёзно пострадала, уходит в самоволку и становится игроком на подпольном тотализаторе в «русскую рулетку». И только один пытается вернуться в мирную жизнь. Но и ему уже невозможно стать тем, каким он был до войны, война серьёзно изменила и его психику и отношение к миру, но он надеется помочь друзьям...
Рейтинг фильма : -- IMDB / 8,2
Сэмпл: http://multi-up.com/1173620
Качество видео: НDRip (Исходник BDRip 1080p)
Формат видео: AVI
Видео: XviD 73, 720x304, (2,35:1), 23,976 fps, 1488 Кбит/с, 8 бит, 0.28 bit/pixel
Аудио: Русский (АС3, 2 ch (Front: L R), 48,0 KHz, 192 Kbps)

MediaInfo

Общее
Полное имя : D:\Видеофильмы\В и д е о\Охотник на оленей (драма, военный 1978 год).avi
Формат : AVI
Формат/Информация : Audio Video Interleave
Профиль формата : OpenDML
Размер файла : 2,17 Гбайт
Продолжительность : 3 ч. 3 м.
Общий поток : 1691 Кбит/сек
Программа кодирования : VirtualDubMod 1.5.10.3 | www.virtualdub-fr.org || (build 2550/release)
Библиотека кодирования : VirtualDubMod build 2550/release
Видео
Идентификатор : 0
Формат : MPEG-4 Visual
Профиль формата : Advanced [email protected]
Параметр BVOP формата : 2
Параметр QPel формата : Нет
Параметр GMC формата : Без точки перехода
Параметр матрицы формата : Выборочная
Идентификатор кодека : XVID
Идентификатор кодека/Подсказка : XviD
Продолжительность : 3 ч. 3 м.
Битрейт : 1488 Кбит/сек
Ширина : 720 пикселей
Высота : 304 пикселя
Соотношение сторон : 2,35:1
Частота кадров : 23,976 (23976/1000) кадра/сек
Цветовое пространство : YUV
Субдискретизация насыщенности : 4:2:0
Битовая глубина : 8 бит
Тип развёртки : Прогрессивная
Метод сжатия : С потерями
Бит/(Пиксели*Кадры) : 0.283
Размер потока : 1,91 Гбайт (88%)
Библиотека кодирования : XviD 73
Аудио
Идентификатор : 1
Формат : AC-3
Формат/Информация : Audio Coding 3
Расширение режима : CM (complete main)
Параметр Endianness формата : Big
Идентификатор кодека : 2000
Продолжительность : 3 ч. 3 м.
Вид битрейта : Постоянный
Битрейт : 192 Кбит/сек
Каналы : 2 канала
Расположение каналов : Front: L R
Частота : 48,0 КГц
Частота кадров : 31,250 кадров/сек (1536 spf)
Метод сжатия : С потерями
Размер потока : 252 Мбайт (11%)
Выравнивание : Разделение по промежуткам
Продолжительность промежутка : 42 мс. (1,00 видеокадр)
Время предзагрузки промежутка : 500 мс.

Скриншот c названием фильма

If your ratio falls below 0.3, you will not be able to download Torrents! More about the rating.

[erzsebet.pl].t138.torrent
Torrent: Registered   [ 2017-12-02 16:10 ]

Download .torrent

Download

11 KB

Status: checked
Completed: 16 times
Size: 2.17 GB
terms.php

#1

02-Dec-2017 16:10

[Profile]  [PM] 
Display posts:    

You cannot post new topics in this forum
You cannot reply to topics in this forum
You cannot edit your posts in this forum
You cannot delete your posts in this forum
You cannot vote in polls in this forum
You cannot attach files in this forum
You can download files in this forum
User agreement
For copyright holders
Advertise on this site

Скачайте на халяву через торрент на трекере erzsebet.pl

!ATTENTION!
The site does not give electronic versions of products, and is engaged only in a collecting and cataloguing of the references sent and published at a forum by our readers. If you are the legal owner of any submitted material and do not wish that the reference to it was in our catalogue, contact us and we shall immediately remove her. Files for an exchange on tracker are given by users of a site, and the administration does not bear the responsibility for their maintenance. The request to not fill in the files protected by copyrights, and also files of the illegal maintenance!