Сёстры / Sisters (Брайан Де Пальма / Brian De Palma) [1973, США, триллер, ужасы, детектив, HDRip] AVO (Григорий Либергал) + Original Eng

Reply to topic
DL-List and Torrent activity
Size:  1.43 GB   |    Registered:  3 years 3 months   |    Completed:  16 times

Seeder not seen: 3 years 3 months

 
   
 
 
Author Message

erzsebet.org ®

Longevity: 3 years 2 months

Posts: 47596

Post 02-Dec-2017 16:10

[Quote]

Сёстры / Sisters
Страна: США
Жанр: триллер, ужасы, детектив
Год выпуска: 1973
Продолжительность: 01:32:22
Перевод: Авторский (одноголосый закадровый) Григорий Либергал
Субтитры: нет
Оригинальная аудиодорожка: Английский
Режиссер: Брайан Де Пальма / Brian De Palma
В ролях: Марго Киддер, Дженнифер Солт, Чарльз Дёрнинг, Уильям Финли, Лайл Уилсон, Барнард Хьюз, Мэри Девенпорт, Дольф Свит, Кэти Берри
Описание: Женщине-репортёру Грейс показалось из окна своей квартиры, что в доме напротив какая-то девушка совершила убийство молодого человека. Грейс выясняет, что эта девушка по имени Даниель и её сестра Доминик когда-то были… сиамскими близнецами, а после сделанной операции они живут раздельно, причём одна из сестёр — вполне нормальная, другая же постоянно испытывает мании и приступы агрессии. Грейс начинает собственное расследование, встречая противодействие мужа предполагаемой убийцы. Но не совершила ли это преступление вовсе не Даниель, а её сестра?
Доп. информация: Выражаю огромную благодарность Нордеру за синхронизацию звуковой дорожки.
Сэмпл: http://multi-up.com/1173548
Качество видео: HDRip (Исходник BDRip 720p)
Формат видео: AVI
Видео: XviD 73, 704x400, (16:9), 23,976 fps, 1819 Кбит/с, 8 бит, 0.27 bit/pixel
Аудио: Русский (АС3, 2 ch (Front: L R), 48,0 KHz, 192 Kbps)
Аудио 2: Английский (АС3, 2 ch (Front: L R), 48,0 KHz, 192 Kbps)

MediaInfo

Общее
Полное имя : D:\Видеофильмы\В и д е о\Сёстры (триллер, ужасы 1973 год).avi
Формат : AVI
Формат/Информация : Audio Video Interleave
Размер файла : 1,43 Гбайт
Продолжительность : 1 ч. 32 м.
Общий поток : 2218 Кбит/сек
Программа кодирования : VirtualDubMod 1.5.10.2 (build 2540/release)
Библиотека кодирования : VirtualDubMod build 2540/release
Видео
Идентификатор : 0
Формат : MPEG-4 Visual
Профиль формата : Advanced [email protected]
Параметр BVOP формата : 2
Параметр QPel формата : Нет
Параметр GMC формата : Без точки перехода
Параметр матрицы формата : Выборочная
Идентификатор кодека : XVID
Идентификатор кодека/Подсказка : XviD
Продолжительность : 1 ч. 32 м.
Битрейт : 1819 Кбит/сек
Ширина : 704 пикселя
Высота : 400 пикселей
Соотношение сторон : 16:9
Частота кадров : 23,976 (23976/1000) кадра/сек
Цветовое пространство : YUV
Субдискретизация насыщенности : 4:2:0
Битовая глубина : 8 бит
Тип развёртки : Прогрессивная
Метод сжатия : С потерями
Бит/(Пиксели*Кадры) : 0.269
Размер потока : 1,17 Гбайт (82%)
Библиотека кодирования : XviD 73
Аудио #1
Идентификатор : 1
Формат : AC-3
Формат/Информация : Audio Coding 3
Расширение режима : CM (complete main)
Параметр Endianness формата : Big
Идентификатор кодека : 2000
Продолжительность : 1 ч. 32 м.
Вид битрейта : Постоянный
Битрейт : 192 Кбит/сек
Каналы : 2 канала
Расположение каналов : Front: L R
Частота : 48,0 КГц
Частота кадров : 31,250 кадров/сек (1536 spf)
Метод сжатия : С потерями
Размер потока : 127 Мбайт (9%)
Выравнивание : Разделение по промежуткам
Продолжительность промежутка : 42 мс. (1,00 видеокадр)
Время предзагрузки промежутка : 500 мс.
Аудио #2
Идентификатор : 2
Формат : AC-3
Формат/Информация : Audio Coding 3
Расширение режима : CM (complete main)
Параметр Endianness формата : Big
Идентификатор кодека : 2000
Продолжительность : 1 ч. 32 м.
Вид битрейта : Постоянный
Битрейт : 192 Кбит/сек
Каналы : 2 канала
Расположение каналов : Front: L R
Частота : 48,0 КГц
Частота кадров : 31,250 кадров/сек (1536 spf)
Метод сжатия : С потерями
Размер потока : 127 Мбайт (9%)
Выравнивание : Разделение по промежуткам
Продолжительность промежутка : 42 мс. (1,00 видеокадр)
Время предзагрузки промежутка : 500 мс.

Скриншот c названием фильма

Скриншоты

[erzsebet.pl].t139.torrent
Torrent: Registered [ 2017-12-02 16:10 ] · D370C5BCD8613EA045EAC2AA88A74B21CD50030B

Download .torrent

Download

15 KB

Status: checked
Completed: 16 times
Size: 1.43 GB
terms.php
[Profile] [PM]
Display posts:    
Reply to topic

Current time is: 07-Mar 21:16

All times are UTC ± 0



You cannot post new topics in this forum
You cannot reply to topics in this forum
You cannot edit your posts in this forum
You cannot delete your posts in this forum
You cannot vote in polls in this forum
You cannot attach files in this forum
You can download files in this forum