Бегущая от реальности / Complete Unknown (Джошуа Марстон / Joshua Marston) [2016, США, драма, детектив, WEB-DLRip] MVO

Reply to topic
DL-List and Torrent activity
Size:  749 MB   |    Registered:  3 years 3 months   |    Completed:  16 times

Seeder not seen: Never

 
   
 
 
Author Message

erzsebet.org ®

Longevity: 3 years 2 months

Posts: 47596

Post 02-Dec-2017 15:58

[Quote]

Бегущая от реальности / Complete Unknown
Страна: США
Жанр: драма, детектив
Год выпуска: 2016
Продолжительность: 01:31:51-Перевод: Профессиональный (многоголосый закадровый) | iTunes
Субтитры: нет
Оригинальная аудиодорожка: нет-Режиссер: Джошуа Марстон / Joshua Marston-В ролях: Рэйчел Вайз, Майкл Шеннон, Кэти Бэйтс, Дэнни Гловер, Кондола Рашад, Майкл Чернус, Эрин Майя Дарк, Гензель Тан, ФаТай, Зэк Аппельман-Описание: Во время ужина в день своего рождения Том встречает среди гостей загадочную девушку по имени Элис. Том убежден, что они были знакомы и более чем близки, но таинственная гостья не признается и представляется совершенно другим человеком. Когда Элис сбегает, Том следует за ней, бросается в неизвестность. Вместе они становятся абсолютно свободными, анонимными, теряются в толпе мегаполиса. Эта полная приключений ночь — их шанс изменить жизнь…-Качество видео: WEB-DLRip
Формат видео: AVI
Видео: 688x288 (2.39:1), 23.976 fps, XviD build 73 ~1002 kbps avg, 0.21 bit/pixel
Аудио: 48 kHz, MPEG Layer 3, 2 ch, ~128.00 kbps avg-Скачать сэмпл-

MediaInfo

Код:Format : AVI
Format/Info : Audio Video Interleave
File size : 749 MiB
Duration : 1 h 31 min
Overall bit rate : 1 140 kb/s
Writing application : VirtualDubMod 1.5.10.3 | www.virtualdub-fr.org || (build 2550/release)
Writing library : VirtualDubMod build 2550/release
Video
ID : 0
Format : MPEG-4 Visual
Format profile : Advanced [email protected]
Format settings : BVOP1 / Custom Matrix
Format settings, BVOP : 1
Format settings, QPel : No
Format settings, GMC : No warppoints
Format settings, Matrix : Custom
Codec ID : XVID
Codec ID/Hint : XviD
Duration : 1 h 31 min
Bit rate : 1 003 kb/s
Width : 688 pixels
Height : 288 pixels
Display aspect ratio : 2.40:1
Frame rate : 23.976 (24000/1001) FPS
Color space : YUV
Chroma subsampling : 4:2:0
Bit depth : 8 bits
Scan type : Progressive
Compression mode : Lossy
Bits/(Pixel*Frame) : 0.211
Stream size : 659 MiB (88%)
Writing library : XviD 73
Audio
ID : 1
Format : MPEG Audio
Format version : Version 1
Format profile : Layer 3
Codec ID : 55
Codec ID/Hint : MP3
Duration : 1 h 31 min
Bit rate mode : Constant
Bit rate : 128 kb/s
Channel(s) : 2 channels
Sampling rate : 48.0 kHz
Compression mode : Lossy
Stream size : 84.1 MiB (11%)
Alignment : Aligned on interleaves
Interleave, duration : 42 ms (1.00 video frame)
Interleave, preload duratio : 504 ms
Writing library : LAME3.99r
Encoding settings : -m s -V 4 -q 2 -lowpass 17 -b 128

Скриншоты

[erzsebet.pl].t14.torrent
Torrent: Registered [ 2017-12-02 15:58 ] · AFB4FC2371233A97DE4DDE935C786980C7AD5E91

Download .torrent

Download

15 KB

Status: checked
Completed: 16 times
Size: 749 MB
terms.php
[Profile] [PM]
Display posts:    
Reply to topic

Current time is: 03-Mar 18:03

All times are UTC ± 0



You cannot post new topics in this forum
You cannot reply to topics in this forum
You cannot edit your posts in this forum
You cannot delete your posts in this forum
You cannot vote in polls in this forum
You cannot attach files in this forum
You can download files in this forum