Смелей, беги! / Смелей, бежим / Courage fuyons (Ив Робер / Yves Robert) [1979, Франция, комедия, мелодрама, DVB] Original (Fre) + Sub (Rus, Eng, Fre, Deu)

DL-List and Torrent activity
Size:  2.17 GB   |    Registered:  2 years 9 months   |    Completed:  16 times
Seeders:  8   Leechers:  1   Show peers in full details
 
   
 
 

erzsebet.org ®

Longevity:
2 years 9 months
Posts:
47596

[Quote] 

Смелей, беги!
Courage fuyons- Страна: Франция
Жанр: комедия, мелодрама
Год выпуска: 1979
Продолжительность: 01:34:22Перевод: Субтитры (русский перевод И.Рыбкиной, ECLAIR)
Субтитры: русские, английские, французские, немецкие, нидерландские
Оригинальная аудиодорожка: французский
Режиссер: Ив Робер / Yves Robert
В ролях: Жан Рошфор / Jean Rochefort (Martin Belhomme / Adrien Belhomme, his father), Катрин Денёв / Catherine Deneuve (Eva), Филипп Леруа / Philippe Leroy (Eric Sylvain de Chalamond), Мишель Бон / Michel Beaune (Noël), Роберт Уэббер / Robert Webber (Charley), Доминик Лаванан / Dominique Lavanant (Mathilda), Мишель Омон / Michel Aumont (Franckie), Жерар Дармон / Gérard Darmon (Le provocateur)
Описание: композитор Владимир Косма / Vladimir Cosma.
Заурядный аптекарь, "генетический трус в третьем поколении". Что заставляет его поехать за незнакомой женщиной в другую страну, врать своей возлюбленной, что он писатель, перебиваясь случайными заработками, и при первой же угрозе бросить ее, впав в хорошо контролируемую амнезию?
Доп. информация: Hot Bird (13.0°E) TV5MONDE Europe DVB-S
Награды: 3 номинации на "Сезар" 1980 (лучший актер - Jean Rochefort, лучший актер второго плана - Michel Aumont, лучшая актриса второго плана - Dominique Lavanant).
Качество видео: DVB
Формат видео: MKV
Видео: MPEG Video 2, [email protected] (16:9), 25 fps, ~3040 kbps avg, 0.293 bit/pixel
Аудио: MPEG Audio 2, 2 ch, 48 kHz, 192 kbps - французский
Формат субтитров: softsub (SRT)

Пример субтитров

1
00:00:26,519 --> 00:00:31,269
"Он воззвал к своему мужеству,
2
00:00:33,881 --> 00:00:38,381
но мужество не ответило ему,
3
00:00:42,832 --> 00:00:47,582
и он поостерегся вмешиваться".
4
00:00:52,524 --> 00:00:54,774
Жюль Ренар
5
00:01:26,451 --> 00:01:30,277
-Привет, парень!
-Привет.
6
00:01:30,277 --> 00:01:32,902
СМЕЛЕЙ, БЕГИ!
7
00:04:05,081 --> 00:04:07,956
Вы уже легли...
8
00:04:34,999 --> 00:04:36,597
Сигаретку?
9
00:04:36,597 --> 00:04:38,097
Нет.
10
00:04:39,880 --> 00:04:41,727
Что вы надумали?
11
00:04:41,727 --> 00:04:44,957
Сначала покурите,
а потом поцелуете меня?
12
00:04:44,957 --> 00:04:48,457
Прошу простить меня.
13
00:05:02,840 --> 00:05:04,480
Кто мы?
14
00:05:04,480 --> 00:05:05,918
Что?
15
00:05:05,918 --> 00:05:11,243
Но... Вы зажали мне уши руками,
я не слышу.
16
00:05:11,243 --> 00:05:13,118
Где мы?
17
00:05:13,755 --> 00:05:16,280
В Амстердаме.
18
00:05:16,280 --> 00:05:22,280
Два обнаженных
незнакомца в Амстердаме.
19
00:05:25,396 --> 00:05:27,444
Как вас зовут?
20
00:05:27,444 --> 00:05:30,080
Мартен Бельом.

MediaInfo

General
Unique ID : 236818676751804023609264602667017670571 (0xB2299E3B7362B4DEB6D0E120B7798FAB)
Complete name : [apreder]Courage_fuyons(1979)DVB.mkv
Format : Matroska
Format version : Version 2
File size : 2.17 GiB
Duration : 1 h 34 min
Overall bit rate mode : Variable
Overall bit rate : 3 298 kb/s
Movie name : Courage fuyons
Released date : 1979-10-17
Encoded date : UTC 2017-10-25 17:08:08
Writing application : mkvmerge v17.0.0 ('Be Ur Friend') 64-bit
Writing library : libebml v1.3.5 + libmatroska v1.4.8
Cover : Yes
Attachments : cover.jpg / small_cover.jpg
ACTOR : Jean Rochefort, Catherine Deneuve, Philippe Leroy
DIRECTOR : Yves Robert
GENRE : Comedy, Romance
IMDB : tt0079003
KEYWORDS : erzsebet.org
LAW_RATING : 16+
Video
ID : 1
Format : MPEG Video
Format version : Version 2
Format profile : [email protected]
Format settings : BVOP
Format settings, BVOP : Yes
Format settings, Matrix : Default
Format settings, GOP : Variable
Format settings, picture structure : Frame
Codec ID : V_MPEG2
Codec ID/Info : MPEG 1 or 2 Video
Duration : 1 h 34 min
Bit rate mode : Variable
Bit rate : 3 040 kb/s
Maximum bit rate : 15.0 Mb/s
Width : 720 pixels
Height : 576 pixels
Display aspect ratio : 16:9
Active Format Description : Letterbox 16:9 image
Frame rate mode : Constant
Frame rate : 25.000 FPS
Standard : PAL
Color space : YUV
Chroma subsampling : 4:2:0
Bit depth : 8 bits
Scan type : Interlaced
Scan order : Top Field First
Compression mode : Lossy
Bits/(Pixel*Frame) : 0.293
Stream size : 2.00 GiB (92%)
Default : Yes
Forced : No
Audio
ID : 2
Format : MPEG Audio
Format version : Version 1
Format profile : Layer 2
Format settings : Joint stereo / Intensity Stereo + MS Stereo
Mode : Joint stereo
Mode extension : Intensity Stereo + MS Stereo
Codec ID : A_MPEG/L2
Codec ID/Hint : MP2
Duration : 1 h 34 min
Bit rate mode : Constant
Bit rate : 192 kb/s
Channel(s) : 2 channels
Sampling rate : 48.0 kHz
Compression mode : Lossy
Stream size : 130 MiB (6%)
Language : French
Default : Yes
Forced : No
Text #1
ID : 3
Format : UTF-8
Codec ID : S_TEXT/UTF8
Codec ID/Info : UTF-8 Plain Text
Language : Russian
Default : No
Forced : No
Text #2
ID : 4
Format : UTF-8
Codec ID : S_TEXT/UTF8
Codec ID/Info : UTF-8 Plain Text
Language : English
Default : No
Forced : No
Text #3
ID : 5
Format : UTF-8
Codec ID : S_TEXT/UTF8
Codec ID/Info : UTF-8 Plain Text
Language : French
Default : No
Forced : No
Text #4
ID : 6
Format : UTF-8
Codec ID : S_TEXT/UTF8
Codec ID/Info : UTF-8 Plain Text
Language : German
Default : No
Forced : No
Text #5
ID : 7
Format : UTF-8
Codec ID : S_TEXT/UTF8
Codec ID/Info : UTF-8 Plain Text
Language : Dutch
Default : No
Forced : No

Скриншот c названием фильма

Скриншоты


Резервные скриншоты


- [3'916]

If your ratio falls below 0.3, you will not be able to download Torrents! More about the rating.

[erzsebet.pl].t141.torrent
Torrent: Registered   [ 2017-12-02 16:10 ]

Download .torrent

Download

22 KB

Status: checked
Completed: 16 times
Size: 2.17 GB
terms.php

#1

02-Dec-2017 16:10

[Profile]  [PM] 
Display posts:    

You cannot post new topics in this forum
You cannot reply to topics in this forum
You cannot edit your posts in this forum
You cannot delete your posts in this forum
You cannot vote in polls in this forum
You cannot attach files in this forum
You can download files in this forum
User agreement
For copyright holders
Advertise on this site

Скачайте на халяву через торрент на трекере erzsebet.pl

!ATTENTION!
The site does not give electronic versions of products, and is engaged only in a collecting and cataloguing of the references sent and published at a forum by our readers. If you are the legal owner of any submitted material and do not wish that the reference to it was in our catalogue, contact us and we shall immediately remove her. Files for an exchange on tracker are given by users of a site, and the administration does not bear the responsibility for their maintenance. The request to not fill in the files protected by copyrights, and also files of the illegal maintenance!