Палачи / Исполнители / Расплата в Сан-Франциско / Gli esecutori (Маурицио Лучиди / Maurizio Lucidi, Гульельмо Гаррони / Guglielmo Garroni) [1976, Италия, боевик, драма, криминал, DVDRip] VO (Белов) + VO (allecs2010)

Reply to topic
DL-List and Torrent activity
Size:  1.47 GB   |    Registered:  3 years 3 months   |    Completed:  16 times

Seeder not seen: 3 years 3 months

 
   
 
 
Author Message

erzsebet.org ®

Longevity: 3 years 2 months

Posts: 47596

Post 02-Dec-2017 16:10

[Quote]

Палачи / Исполнители / Расплата в Сан-Франциско / Gli esecutori
Страна: Италия
Жанр: боевик, драма, криминал
Год выпуска: 1976
Продолжительность: 01:38:55
-
Перевод 1: Одноголосый закадровый Вадим Белов
Перевод 2: Одноголосый закадровый allecs2010 по субтитрам Антона Каптелова
Субтитры: нет
-
Режиссер: Маурицио Лучиди / Maurizio Lucidi, Гульельмо Гаррони / Guglielmo Garroni
В ролях: Роджер Мур, Стейси Кич, Иво Гаррани, Фаусто Тоцци, Эннио Бальбо, Лоретта Персичетти, Пьетро Мартелланца, Луиджи Каселлато, Романо Пуппо, Розмари Линдт
-
Описание: Босс мафии Франческо Сальваторе с негодованием узнает, что сорвалась поставка наркотиков с Сицилии в Сан-Франциско, перевозимых в кресте для церкви. Он вызывает к себе племянника-адвоката Улисса и требует, чтобы тот выяснил, кто стоит за этим провалом. Адвокат в свою очередь обращается за помощью к своему другу, автогонщику Чарли. Вместе они начинают поиски утечки информации.
-
Доп. информация: Видео http://erzsebet.org/forum/viewtopic.php?t=5241618
-
Сэмпл: http://sendfile.su/1372050
-
Качество видео: DVDRip
Формат видео: AVI
Видео: 704x368 (1.91:1), 25 fps, XviD build 47 ~1766 kbps avg, 0.27 bit/pixel
Аудио 1: 48 kHz, AC3 Dolby Digital, 2/0 (L,R) ch, ~192 kbps Вадим Белов
Аудио 2: 48 kHz, MPEG Layer 3, 2 ch, ~160.00 kbps avg allecs2010

MediaInfo

General
Complete name : C:\Users\ALEX\Desktop\Фильмы\Gli esecutori.1976.DUALRUS.DVDRip.XviD.AC3.MPEG Audio.avi
Format : AVI
Format/Info : Audio Video Interleave
File size : 1.47 GiB
Duration : 1 h 38 min
Overall bit rate : 2 133 kb/s
Writing application : VirtualDubMod 1.5.10.2 (build 2542/release)
Writing library : VirtualDubMod build 2542/release
Video
ID : 0
Format : MPEG-4 Visual
Format profile : Advanced [email protected]
Format settings : BVOP1
Format settings, BVOP : 1
Format settings, QPel : No
Format settings, GMC : No warppoints
Format settings, Matrix : Default (MPEG)
Codec ID : XVID
Codec ID/Hint : XviD
Duration : 1 h 38 min
Bit rate : 1 767 kb/s
Width : 704 pixels
Height : 368 pixels
Display aspect ratio : 1.913
Frame rate : 25.000 FPS
Color space : YUV
Chroma subsampling : 4:2:0
Bit depth : 8 bits
Scan type : Progressive
Compression mode : Lossy
Bits/(Pixel*Frame) : 0.273
Stream size : 1.22 GiB (83%)
Writing library : XviD 1.2.0.dev47 (UTC 2006-11-01)
Audio #1
ID : 1
Format : AC-3
Format/Info : Audio Coding 3
Format settings, Endianness : Big
Codec ID : 2000
Duration : 1 h 38 min
Bit rate mode : Constant
Bit rate : 192 kb/s
Channel(s) : 2 channels
Channel positions : Front: L R
Sampling rate : 48.0 kHz
Frame rate : 31.250 FPS (1536 SPF)
Bit depth : 16 bits
Compression mode : Lossy
Stream size : 136 MiB (9%)
Alignment : Split accross interleaves
Interleave, duration : 40 ms (1.00 video frame)
Interleave, preload duratio : 500 ms
Service kind : Complete Main
Audio #2
ID : 2
Format : MPEG Audio
Format version : Version 1
Format profile : Layer 3
Codec ID : 55
Codec ID/Hint : MP3
Duration : 1 h 38 min
Bit rate mode : Constant
Bit rate : 160 kb/s
Channel(s) : 2 channels
Sampling rate : 48.0 kHz
Compression mode : Lossy
Stream size : 113 MiB (8%)
Alignment : Aligned on interleaves
Interleave, duration : 40 ms (1.00 video frame)
Interleave, preload duratio : 504 ms

Скриншоты

[erzsebet.pl].t142.torrent
Torrent: Registered [ 2017-12-02 16:10 ] · 05546447E7F510E18AECF40649F0B36C49CF4807

Download .torrent

Download

15 KB

Status: checked
Completed: 16 times
Size: 1.47 GB
terms.php
[Profile] [PM]
Display posts:    
Reply to topic

Current time is: 08-Mar 01:03

All times are UTC ± 0



You cannot post new topics in this forum
You cannot reply to topics in this forum
You cannot edit your posts in this forum
You cannot delete your posts in this forum
You cannot vote in polls in this forum
You cannot attach files in this forum
You can download files in this forum