Двадцать три шага до Бейкер Стрит / 23 Paces to Baker Street (Генри Хэтэуэй / Henry Hathaway) [1956, США, триллер, детектив, BDRip] VO + Original Eng

Reply to topic
DL-List and Torrent activity
Size:  1.46 GB   |    Registered:  3 years 3 months   |    Completed:  16 times

Seeder not seen: 3 years 3 months

 
   
 
 
Author Message

erzsebet.org ®

Longevity: 3 years 2 months

Posts: 47596

Post 02-Dec-2017 16:10

[Quote]

Двадцать три шага до Бейкер Стрит / 23 Paces to Baker Street
Страна: США
Студия: 20th Century Fox Film Corporation
Жанр: триллер, детектив
Год выпуска: 1956
Продолжительность: 01:43:05
Перевод: Одноголосый закадровый - Дмитрий Есарев
Субтитры: нет
Оригинальная аудиодорожка: английский
Режиссер: Генри Хэтэуэй / Henry Hathaway
Композитор: Ли Харлайн / Leigh Harline
В ролях: Ван Джонсон / Van Johnson ... Phillip Hannon
Вера Майлз / Vera Miles ... Jean Lennox
Сесил Паркер / Cecil Parker ... Bob Matthews
Патриция Лаффан / Patricia Laffan ... Miss Alice MacDonald
Морис Денэм / Maurice Denham ... Inspector Grovening
Эстель Уинвуд / Estelle Winwood ... Barmaid at The Eagle
Лайам Редмонд / Liam Redmond ... Joe
Изобел Элсом / Isobel Elsom ... Lady Syrett
Мартин Бенсон / Martin Benson ... Pillings
Натали Норвик / Natalie Norwick ... Janet Murch
Теренс Марни / Terence de Marney ... Det. Sgt. Luce

Описание: Экранизация романа Филипа МакДональда.
Недавно ослепший известный американский драматург Филипп Хэннон прибывает в Лондон, чтобы сделать правки в своей пьесе, которую ставят в одном лондонском театре. Не желая быть обузой, Филипп разорвал помолвку со своей секретаршей Джин Леннокс, которая продолжает любить его и приезжает следом за ним в Лондон.
Однажды вечером в местном пабе Филипп подслушал разговор между мужчиной и женщиной, из которого он узнал о готовящемся похищении ребёнка. В полиции его рассказ снисходительно восприняли как плод буйного воображения слепого писателя. Тогда Филипп решает сам расследовать преступление. Ему помогают Джин и его преданный дворецкий Боб Мэтьюс...--Фильмография Вана Джонсона--БОЛЬШОЕ СПАСИБО:
Работа со звуком - AlekceyR76
Перевод и озвучивание фильма - Дмитрий Есарев
Также Большое Спасибо всем, кто принял участие в появлении перевода и озвучки к этому фильму:
Магда, Lafajet, jasenka, елена 22, yanaelisa, STICK24, voostorg, Ugo927, Patsy+, sindzi, cementit, HippopotamusIV, surzhoks, борюська, Wrobel, exact
--Сэмпл: https://www.sendspace.com/file/h4nnsz
Качество видео: BDRip
Формат видео: AVI
Видео: XviD, 688x272 (2.53:1), 23.976 fps, 1630 Kbps
Аудио 1: AC3, 48.0 KHz, 2 ch., 192 Kbps (русский одноголосый закадровый перевод) - Дмитрий Есарев
Аудио 2: AC3, 48.0 KHz, 2 ch., 192 Kbps (оригинальная английская звуковая дорожка)

MediaInfo

Общее
Полное имя : R:\РАЗДАЧИ\РИПЫ\23 Paces to Baker Street 1956\23 Paces to Baker Street.avi
Формат : AVI
Формат/Информация : Audio Video Interleave
Размер файла : 1,46 Гбайт
Продолжительность : 1 ч. 43 м.
Общий поток : 2028 Кбит/сек
Программа кодирования : VirtualDubMod 1.5.10.3 | www.virtualdub-fr.org || (build 2550/release)
Библиотека кодирования : VirtualDubMod build 2550/release
Видео
Идентификатор : 0
Формат : MPEG-4 Visual
Профиль формата : Advanced [email protected]
Параметр BVOP формата : 2
Параметр QPel формата : Нет
Параметр GMC формата : Без точки перехода
Параметр матрицы формата : Default (MPEG)
Идентификатор кодека : DX50
Идентификатор кодека/Подсказка : DivX 5
Продолжительность : 1 ч. 43 м.
Битрейт : 1630 Кбит/сек
Ширина : 688 пикселей
Высота : 272 пикселя
Соотношение сторон : 2,529
Частота кадров : 23,976 (24000/1001) кадра/сек
Частота кадров в оригинале : 23,976 (23976/1000) кадра/сек
Цветовое пространство : YUV
Субдискретизация насыщенности : 4:2:0
Битовая глубина : 8 бит
Тип развёртки : Прогрессивная
Метод сжатия : С потерями
Бит/(Пиксели*Кадры) : 0.363
Размер потока : 1,17 Гбайт (80%)
Библиотека кодирования : XviD 73
Аудио #1
Идентификатор : 1
Формат : AC-3
Формат/Информация : Audio Coding 3
Параметр Endianness формата : Big
Идентификатор кодека : 2000
Продолжительность : 1 ч. 43 м.
Вид битрейта : Постоянный
Битрейт : 192 Кбит/сек
Каналы : 2 канала
Расположение каналов : Front: L R
Частота : 48,0 КГц
Частота кадров : 31,250 кадров/сек (1536 spf)
Битовая глубина : 16 бит
Метод сжатия : С потерями
Размер потока : 142 Мбайт (9%)
Выравнивание : Разделение по промежуткам
Продолжительность промежутка : 42 мс. (1,00 видеокадр)
Время предзагрузки промежутка : 500 мс.
ServiceKind/String : Complete Main
Аудио #2
Идентификатор : 2
Формат : AC-3
Формат/Информация : Audio Coding 3
Параметр Endianness формата : Big
Идентификатор кодека : 2000
Продолжительность : 1 ч. 43 м.
Вид битрейта : Постоянный
Битрейт : 192 Кбит/сек
Каналы : 2 канала
Расположение каналов : Front: L R
Частота : 48,0 КГц
Частота кадров : 31,250 кадров/сек (1536 spf)
Битовая глубина : 16 бит
Метод сжатия : С потерями
Размер потока : 142 Мбайт (9%)
Выравнивание : Разделение по промежуткам
Продолжительность промежутка : 42 мс. (1,00 видеокадр)
Время предзагрузки промежутка : 500 мс.
ServiceKind/String : Complete Main
[erzsebet.pl].t144.torrent
Torrent: Registered [ 2017-12-02 16:10 ] · 7C857DC375355AC913764C153F168B3FFADD2F0C

Download .torrent

Download

15 KB

Status: checked
Completed: 16 times
Size: 1.46 GB
terms.php
[Profile] [PM]
Display posts:    
Reply to topic

Current time is: 05-Mar 04:24

All times are UTC ± 0



You cannot post new topics in this forum
You cannot reply to topics in this forum
You cannot edit your posts in this forum
You cannot delete your posts in this forum
You cannot vote in polls in this forum
You cannot attach files in this forum
You can download files in this forum