Кто боится Вирджинии Вульф? / Who's Afraid of Virginia Woolf? (Майк Николс / Mike Nichols) [1966, США, драма, BDRip] AVO (Сергей Визгунов)

Reply to topic
DL-List and Torrent activity
Size:  2.06 GB   |    Registered:  3 years 3 months   |    Completed:  16 times

Seeder not seen: 3 years 3 months

 
   
 
 
Author Message

erzsebet.org ®

Longevity: 3 years 2 months

Posts: 47596

Post 02-Dec-2017 16:09

[Quote]

Кто боится Вирджинии Вульф? / Who's Afraid of Virginia Woolf?
Страна: США
Жанр: драма
Год выпуска: 1966
Продолжительность: 02:10:59
Перевод: Авторский (одноголосый закадровый) Сергей Визгунов
Субтитры: нет
Режиссер: Майк Николс / Mike Nichols
В ролях: Элизабет Тейлор, Ричард Бёртон, Джордж Сигал, Сэнди Дэннис, Агнес Флэнеган, Фрэнк Флэнеган
Описание: На протяжении двадцати лет профессор истории Джордж женат на Марте и работает в университете, в котором ректором является отец супруги. Его жена всегда была вызывающей особой, устраивающей мужу постоянные скандалы. По началу Джордж пытался вступать с ней в споры, отстаивая свою позицию, но со временем понял, что это бессмысленно, и начал во всем с ней соглашаться. Однажды они отправляются на вечеринку, где знакомятся с молодой семейной парой Ником и Хани. Вместе с ними они весело проводят время, но по мере выпитого алкоголя страсти начинают накаляться, превращая вечер в настоящий кошмар: их откровения становятся более шокирующими, а шутки более жестокими. Чем же закончиться их совместный отдых?..
Сэмпл: http://multi-up.com/1173166
Качество видео: BDRip (Исходник BDRemux 1080p)
Формат видео: AVI
Видео: XviD 73, 704x400, (16:9), 23,976 fps, 2017 Кбит/с, 8 бит, 0.30 bit/pixel
Аудио: Русский (АС3, 2 ch (Front: L R), 48,0 KHz, 224 Kbps)

MediaInfo

Общее
Полное имя : D:\Видеофильмы\В и д е о\Кто боится Вирджинии Вульф (драма 1966 год).avi
Формат : AVI
Формат/Информация : Audio Video Interleave
Профиль формата : OpenDML
Размер файла : 2,06 Гбайт
Продолжительность : 2 ч. 10 м.
Общий поток : 2253 Кбит/сек
Программа кодирования : VirtualDubMod 1.5.10.3 | www.virtualdub-fr.org || (build 2550/release)
Библиотека кодирования : VirtualDubMod build 2550/release
Видео
Идентификатор : 0
Формат : MPEG-4 Visual
Профиль формата : Advanced [email protected]
Параметр BVOP формата : 2
Параметр QPel формата : Нет
Параметр GMC формата : Без точки перехода
Параметр матрицы формата : Выборочная
Идентификатор кодека : XVID
Идентификатор кодека/Подсказка : XviD
Продолжительность : 2 ч. 10 м.
Битрейт : 2017 Кбит/сек
Ширина : 704 пикселя
Высота : 400 пикселей
Соотношение сторон : 16:9
Частота кадров : 23,976 (23976/1000) кадра/сек
Цветовое пространство : YUV
Субдискретизация насыщенности : 4:2:0
Битовая глубина : 8 бит
Тип развёртки : Прогрессивная
Метод сжатия : С потерями
Бит/(Пиксели*Кадры) : 0.299
Размер потока : 1,85 Гбайт (90%)
Библиотека кодирования : XviD 73
Аудио
Идентификатор : 1
Формат : AC-3
Формат/Информация : Audio Coding 3
Расширение режима : CM (complete main)
Параметр Endianness формата : Big
Идентификатор кодека : 2000
Продолжительность : 2 ч. 10 м.
Вид битрейта : Постоянный
Битрейт : 224 Кбит/сек
Каналы : 2 канала
Расположение каналов : Front: L R
Частота : 48,0 КГц
Частота кадров : 31,250 кадров/сек (1536 spf)
Метод сжатия : С потерями
Размер потока : 210 Мбайт (10%)
Выравнивание : Разделение по промежуткам
Продолжительность промежутка : 42 мс. (1,00 видеокадр)
Время предзагрузки промежутка : 500 мс.

Скриншот c названием фильма

Скриншоты

[erzsebet.pl].t147.torrent
Torrent: Registered [ 2017-12-02 16:10 ] · 3FB66843068616FEC9D21BA6AE602AC50660561A

Download .torrent

Download

11 KB

Status: checked
Completed: 16 times
Size: 2.06 GB
terms.php
[Profile] [PM]
Display posts:    
Reply to topic

Current time is: 02-Mar 23:53

All times are UTC ± 0



You cannot post new topics in this forum
You cannot reply to topics in this forum
You cannot edit your posts in this forum
You cannot delete your posts in this forum
You cannot vote in polls in this forum
You cannot attach files in this forum
You can download files in this forum