Вместе с Дидлами / Встречайте Дидлов / Meet the Deedles (Стив Бойум / Steve Boyum) [1998, США, комедия, WEB-DLRip] DVO (R5) + MVO (СТС) + AVO (Санаев) + Original Eng + Sub Rus

DL-List and Torrent activity
Size:  1.96 GB   |    Registered:  2 years 9 months   |    Completed:  16 times
Seeders:  1  
 
   
 
 

erzsebet.org ®

Longevity:
2 years 9 months
Posts:
47596

[Quote] 

Вместе с Дидлами / Встречайте Дидлов / Meet the Deedles
Страна: США
Студия: DIC Entertainment, Peak Productions, Walt Disney Pictures
Жанр: Комедия
Год выпуска: 1998
Продолжительность: 01:34:02
Перевод 1: Профессиональный (двухголосый закадровый) R5 WestVideo
Перевод 2: Профессиональный (многоголосый закадровый) "Фильм-Экспорт" по заказу "СТС" с VHS
Перевод 3: Авторский (одноголосый закадровый) Павел Санаев - внешняя
Субтитры: русские (внешние)
Оригинальная аудиодорожка: Английский - внешняя
Режиссер: Стив Бойум / Steve Boyum
В ролях: Стив Ван Уормер, Пол Уокер, А.Дж. Ленджер, Джон Эштон, Деннис Хоппер, Эрик Браден, Ричард Лайнбэк, Роберт Инглунд, М. К. Гейни, Ана Гастейер, Меган Кэвэна, Майкл Рууд, Хэтти Уинстон, Ларри Риппенкрюгер, Боб Эрик Харт, Донре Сэмпсон, Дон Нахаку, Билл Монди, Алиса Харрис, Маив Миллард, Браден Пауэлл, Лен Рубел, Мелисса Паке-Тэннер, Доун Блюфорд, Дуан Стефенс
Описание: День 18-летия стал переломным для близнецов Дидлов — их исключили из школы. В наказание богатый папочка отправляет своих чудаков Стью и Фила на перевоспитание в «Лагерь сломленного духа». Но этому не суждено было сбыться: неистребимое раздолбайство заносит братьев к ренджерам, где, встретив достойного противника — Фрэнка Слейтера, они продолжают сеять панику и нести разрушения, но теперь уже на чужой земле!
Дополнительная информация:
Автор релиза -
Выкуп чистого голоса Павла Санаева - ylnian. За сборку дороги спасибо rammzez
За дорожку с переводом "СТС" спасибо Haos-22, JUSTKANT, за чистку и оптимизацию звучания дорожки спасибо rammzez
Источник для рипа - http://erzsebet.org/forum/viewtopic.php?t=5487813
У DVD и WEB-DL разное наполнение кадра:
сравнение исходников - http://screenshotcomparison.com/comparison/125194/
сравнение рипов - http://screenshotcomparison.com/comparison/125268
Рекламы нет!


Сэмпл: https://yadi.sk/i/nvyJ4eV93QEhLm
Качество видео: WEB-DLRip
Формат видео: AVI
Видео: XviD, 720x400 (16:9), 23.976 fps, 1631 kbps, 0.236 bit/pixel
Аудио 1: Русский AC3, 48000 Гц, 6ch, 384 kbps - DVO
Аудио 2: Русский AC3, 48000 Гц, 1ch, 192 kbps - MVO
Аудио 3: Русский AC3, 48000 Гц, 6ch, 384 kbps - AVO
Аудио 4: Английский AC3, 48000 Гц, 6ch, 384 kbps
Формат субтитров: softsub (SRT)

MediaInfo

Общее
Полное имя : D:\Meet.the.Deedles.1998.WEBDLRip-ylnian\Meet.the.Deedles.1998.WEBDLRip-ylnian.avi
Формат : AVI
Формат/Информация : Audio Video Interleave
Размер файла : 1,46 Гбайт
Продолжительность : 1 ч. 34 м.
Общий поток : 2221 Кбит/сек
Программа кодирования : VirtualDubMod 1.5.10.2 (build 2540/release)
Библиотека кодирования : VirtualDubMod build 2540/release
Видео
Идентификатор : 0
Формат : MPEG-4 Visual
Профиль формата : Advanced [email protected]
Настройки формата : BVOP1
Параметр BVOP формата : 1
Параметр QPel формата : Нет
Параметр GMC формата : Без точки перехода
Параметр матрицы формата : Default (MPEG)
Идентификатор кодека : XVID
Идентификатор кодека/Подсказка : XviD
Продолжительность : 1 ч. 34 м.
Битрейт : 1631 Кбит/сек
Ширина : 720 пикселей
Высота : 400 пикселей
Соотношение сторон : 16:9
Частота кадров : 23,976 (24000/1001) кадра/сек
Цветовое пространство : YUV
Субдискретизация насыщенности : 4:2:0
Битовая глубина : 8 бит
Тип развёртки : Прогрессивная
Метод сжатия : С потерями
Бит/(Пиксели*Кадры) : 0.236
Размер потока : 1,07 Гбайт (73%)
Библиотека кодирования : XviD 67
Аудио #1
Идентификатор : 1
Формат : AC-3
Формат/Информация : Audio Coding 3
Идентификатор кодека : 2000
Продолжительность : 1 ч. 34 м.
Вид битрейта : Постоянный
Битрейт : 384 Кбит/сек
Каналы : 6 каналов
Расположение каналов : Front: L C R, Side: L R, LFE
Частота : 48,0 КГц
Частота кадров : 31,250 кадров/сек (1536 SPF)
Битовая глубина : 16 бит
Метод сжатия : С потерями
Размер потока : 258 Мбайт (17%)
Выравнивание : Разделение по промежуткам
Продолжительность промежутка : 42 мс. (1,00 видеокадр)
Время предзагрузки промежутка : 500 мс.
Заголовок : DVO
ServiceKind/String : Complete Main
Аудио #2
Идентификатор : 2
Формат : AC-3
Формат/Информация : Audio Coding 3
Идентификатор кодека : 2000
Продолжительность : 1 ч. 34 м.
Вид битрейта : Постоянный
Битрейт : 192 Кбит/сек
Каналы : 1 канал
Расположение каналов : Front: C
Частота : 48,0 КГц
Частота кадров : 31,250 кадров/сек (1536 SPF)
Битовая глубина : 16 бит
Метод сжатия : С потерями
Размер потока : 129 Мбайт (9%)
Выравнивание : Разделение по промежуткам
Продолжительность промежутка : 42 мс. (1,00 видеокадр)
Время предзагрузки промежутка : 500 мс.
Заголовок : MVO
ServiceKind/String : Complete Main
Общее
Полное имя : D:\Meet.the.Deedles.1998.WEBDLRip-ylnian\Meet.the.Deedles.1998.WEBDLRip-ylnian.avo.ac3
Формат : AC-3
Формат/Информация : Audio Coding 3
Размер файла : 258 Мбайт
Продолжительность : 1 ч. 34 м.
Режим общего битрейта : Постоянный
Общий поток : 384 Кбит/сек
Аудио
Формат : AC-3
Формат/Информация : Audio Coding 3
Продолжительность : 1 ч. 34 м.
Вид битрейта : Постоянный
Битрейт : 384 Кбит/сек
Каналы : 6 каналов
Расположение каналов : Front: L C R, Side: L R, LFE
Частота : 48,0 КГц
Частота кадров : 31,250 кадров/сек (1536 SPF)
Битовая глубина : 16 бит
Метод сжатия : С потерями
Размер потока : 258 Мбайт (100%)
ServiceKind/String : Complete Main
Общее
Полное имя : D:\Meet.the.Deedles.1998.WEBDLRip-ylnian\Meet.the.Deedles.1998.WEBDLRip-ylnian.eng.ac3
Формат : AC-3
Формат/Информация : Audio Coding 3
Размер файла : 258 Мбайт
Продолжительность : 1 ч. 34 м.
Режим общего битрейта : Постоянный
Общий поток : 384 Кбит/сек
Аудио
Формат : AC-3
Формат/Информация : Audio Coding 3
Продолжительность : 1 ч. 34 м.
Вид битрейта : Постоянный
Битрейт : 384 Кбит/сек
Каналы : 6 каналов
Расположение каналов : Front: L C R, Side: L R, LFE
Частота : 48,0 КГц
Частота кадров : 31,250 кадров/сек (1536 SPF)
Битовая глубина : 16 бит
Метод сжатия : С потерями
Размер потока : 258 Мбайт (100%)
ServiceKind/String : Complete Main
Общее
Полное имя : D:\Meet.the.Deedles.1998.WEBDLRip-ylnian\Meet.the.Deedles.1998.WEBDLRip-ylnian.rus.srt
Формат : SubRip
Размер файла : 93,1 Кбайт
Текст
Формат : SubRip
Метод сжатия : Без потерь

Сравнение с DVDRip

Скриншоты сравнения с DVDRip - http://screenshotcomparison.com/comparison/125268
Разное наполнение кадра!

If your ratio falls below 0.3, you will not be able to download Torrents! More about the rating.

[erzsebet.pl].t15.torrent
Torrent: Registered   [ 2017-12-02 15:58 ]

Download .torrent

Download

20 KB

Status: checked
Completed: 16 times
Size: 1.96 GB
terms.php

#1

02-Dec-2017 15:58

[Profile]  [PM] 
Display posts:    

You cannot post new topics in this forum
You cannot reply to topics in this forum
You cannot edit your posts in this forum
You cannot delete your posts in this forum
You cannot vote in polls in this forum
You cannot attach files in this forum
You can download files in this forum
User agreement
For copyright holders
Advertise on this site

Скачайте на халяву через торрент на трекере erzsebet.pl

!ATTENTION!
The site does not give electronic versions of products, and is engaged only in a collecting and cataloguing of the references sent and published at a forum by our readers. If you are the legal owner of any submitted material and do not wish that the reference to it was in our catalogue, contact us and we shall immediately remove her. Files for an exchange on tracker are given by users of a site, and the administration does not bear the responsibility for their maintenance. The request to not fill in the files protected by copyrights, and also files of the illegal maintenance!