Кровь в замке Дракулы / Blood of Dracula's Castle (Эл Адамсон / Al Adamson, Жан Хьюит / Jean Hewitt) [1969, США, ужасы, DVDRip] VO + Original Eng

DL-List and Torrent activity
Size:  1.38 GB   |    Registered:  2 years 9 months   |    Completed:  16 times
Seeders:  5   Leechers:  1   Show peers in full details
 
   
 
 

erzsebet.org ®

Longevity:
2 years 9 months
Posts:
47596

[Quote] 

Кровь в замке Дракулы / Blood of Dracula's Castle Страна: США
Жанр: ужасы
Год выпуска: 1969
Продолжительность: 01:24:50
Перевод: Одноголосый закадровый неизвестный
Субтитры: нет
Оригинальная аудиодорожка: английский
Режиссер: Эл Адамсон / Al Adamson, Жан Хьюит / Jean Hewitt
В ролях: Джон Кэрредин, Пола Рэймонд, Александр Д’Арси, Роберт Дикс, Джин Отис Шэйн, Дженнифер Бишоп, Вики Воланте, Рэй Янг, Джон ’Бад’ Кардос, Кен Осборн, Джойс Кинг
Описание: Молодой фотограф Гленн Кэннон и его невеста - модель Лиз отправляются на фотосессию в Маринлэнд. Внезапно парень узнает, что он унаследовал замок от умершего в 108-летнем возрасте родственника. Влюбленная парочка решает, что жить в замке слишком неудобно и хотят сдать его в аренду старой семейной паре Таунсендов. Кэннону не хочется выставлять старых жильцов вон, и он даже не подозревает, что граф Таунсенд на самом деле не кто иной как сам Дракула. Тем временем в замке разворачиваются зловещие события. Горбун Манго и его слуга Джордан заманивают в замок девушек и приковывают их цепями в подвале. Дело в том, что обитатели замка - вампиры. Они не хотят, чтобы фотограф с невестой уезжали и изо всех сил пытаются задержать их. Вдобавок к этому, в замке объявляется психопатичный маньяк, серийник Джонни, убивший четырех человек. Короче говоря, вскоре в замке собирается та еще компания…
Доп. информация: Рип из сети. Переводчик не опознан, но явно кто-то из авторских или переговорщиков.
Сэмпл: http://multi-up.com/1172609
Качество видео: DVDRip
Формат видео: AVI
Видео: XviD, 640x480 (4:3), 23.976 fps, 1925 kbps avg
Аудио: Russian AC3 Dolby Digital, 48 kHz, 2/0 (L,R) ch, 192.00 kbps avg
Аудио 2: English AC3 Dolby Digital, 48 kHz, 2/0 (L,R) ch, 192.00 kbps avg

MediaInfo

General
Complete name : D:\Blood.of.Dracula's.Castle.1970\Blood.of.Draculas.Castle.1970.DVDRip.VO.avi
Format : AVI
Format/Info : Audio Video Interleave
File size : 1.38 GiB
Duration : 1 h 24 min
Overall bit rate : 2 323 kb/s
Writing application : VirtualDubModRus 1.5.10.2 (build 2542/release)
Writing library : VirtualDubMod build 2542/release
Video
ID : 0
Format : MPEG-4 Visual
Format profile : Advanced [email protected]
Format settings, BVOP : 1
Format settings, QPel : No
Format settings, GMC : No warppoints
Format settings, Matrix : Custom
Codec ID : XVID
Codec ID/Hint : XviD
Duration : 1 h 24 min
Bit rate : 1 925 kb/s
Width : 640 pixels
Height : 480 pixels
Display aspect ratio : 4:3
Frame rate : 23.976 (24000/1001) FPS
Color space : YUV
Chroma subsampling : 4:2:0
Bit depth : 8 bits
Scan type : Progressive
Compression mode : Lossy
Bits/(Pixel*Frame) : 0.261
Stream size : 1.14 GiB (83%)
Writing library : XviD 73
Audio #1
ID : 1
Format : AC-3
Format/Info : Audio Coding 3
Format settings, Endianness : Big
Codec ID : 2000
Duration : 1 h 24 min
Bit rate mode : Constant
Bit rate : 192 kb/s
Channel(s) : 2 channels
Channel positions : Front: L R
Sampling rate : 48.0 kHz
Frame rate : 31.250 FPS (1536 SPF)
Bit depth : 16 bits
Compression mode : Lossy
Stream size : 116 MiB (8%)
Alignment : Split accross interleaves
Interleave, duration : 42 ms (1.00 video frame)
Interleave, preload duratio : 500 ms
Service kind : Complete Main
Audio #2
ID : 2
Format : AC-3
Format/Info : Audio Coding 3
Format settings, Endianness : Big
Codec ID : 2000
Duration : 1 h 24 min
Bit rate mode : Constant
Bit rate : 192 kb/s
Channel(s) : 2 channels
Channel positions : Front: L R
Sampling rate : 48.0 kHz
Frame rate : 31.250 FPS (1536 SPF)
Bit depth : 16 bits
Compression mode : Lossy
Stream size : 116 MiB (8%)
Alignment : Split accross interleaves
Interleave, duration : 42 ms (1.00 video frame)
Interleave, preload duratio : 500 ms
Service kind : Complete Main

Скриншоты

If your ratio falls below 0.3, you will not be able to download Torrents! More about the rating.

[erzsebet.pl].t157.torrent
Torrent: Registered   [ 2017-12-02 16:10 ]

Download .torrent

Download

14 KB

Status: checked
Completed: 16 times
Size: 1.38 GB
terms.php

#1

02-Dec-2017 16:09

[Profile]  [PM] 
Display posts:    

You cannot post new topics in this forum
You cannot reply to topics in this forum
You cannot edit your posts in this forum
You cannot delete your posts in this forum
You cannot vote in polls in this forum
You cannot attach files in this forum
You can download files in this forum
User agreement
For copyright holders
Advertise on this site

Скачайте на халяву через торрент на трекере erzsebet.pl

!ATTENTION!
The site does not give electronic versions of products, and is engaged only in a collecting and cataloguing of the references sent and published at a forum by our readers. If you are the legal owner of any submitted material and do not wish that the reference to it was in our catalogue, contact us and we shall immediately remove her. Files for an exchange on tracker are given by users of a site, and the administration does not bear the responsibility for their maintenance. The request to not fill in the files protected by copyrights, and also files of the illegal maintenance!