Винтовки / Ружья / Os Fuzis (Руй Гуерра / Ruy Guerra) [1964, Бразилия, Аргентина, драма, SATRip] MVO (СВ-Дубль)

DL-List and Torrent activity
Size:  1.37 GB   |    Registered:  2 years 9 months   |    Completed:  16 times
Seeders:  6  
 
   
 
 

erzsebet.org ®

Longevity:
2 years 9 months
Posts:
47596

[Quote] 

Винтовки / Ружья / Os Fuzis
Страна: Бразилия, Аргентина
Жанр: драма
Год выпуска: 1964
Продолжительность: 01:19:55
Перевод: Профессиональный (многоголосый закадровый) студия "СВ-Дубль" по заказу Камер-Тон-Медиа
Субтитры: нет
Оригинальная аудиодорожка: нет
Режиссер: Руй Гуерра / Ruy Guerra
В ролях: Maria Adélia
Жуэл Барселлус
Леонидас Байер
Паоло Кампос
Угу Карвана
Иван Кандиду
Билли Дэвис
Мария Глэдис
Атила Иориу
Hugo Kusnetzoff
Описание: В крайне бедном районе на северо-востоке Бразилии группа солдат пытается удержать местное население от разворовывания запасов пищи.
Сэмпл: http://multi-up.com/1172519
Качество видео: SATRip
Формат видео: AVI
Видео: MPEG4, XviD, 688x432 (1.593), 25.000 fps, 2 251 Kbps (0.303 bit/pixel)
Аудио: AC-3, 48.0 KHz, 2 ch, 192 Kbps, CBR

MediaInfo

Общее
Полное имя : M:\Ружья.avi
Формат : AVI
Формат/Информация : Audio Video Interleave
Размер файла : 1,37 Гбайт
Продолжительность : 1 ч. 19 м.
Общий поток : 2453 Кбит/сек
Название фильма : Винтовки / Ружья / Os Fuzis (1964)
Программа кодирования : VirtualDubMod 1.5.10.2 (build 2540/release)
Библиотека кодирования : VirtualDubMod build 2540/release
Авторское право : miha2154
Видео
Идентификатор : 0
Формат : MPEG-4 Visual
Профиль формата : Advanced [email protected]
Параметр BVOP формата : 1
Параметр QPel формата : Нет
Параметр GMC формата : Без точки перехода
Параметр матрицы формата : Выборочная
Идентификатор кодека : XVID
Идентификатор кодека/Подсказка : XviD
Продолжительность : 1 ч. 19 м.
Битрейт : 2251 Кбит/сек
Ширина : 688 пикселей
Высота : 432 пикселя
Соотношение сторон : 16:10
Частота кадров : 25,000 кадров/сек
Цветовое пространство : YUV
Субдискретизация насыщенности : 4:2:0
Битовая глубина : 8 бит
Тип развёртки : Прогрессивная
Метод сжатия : С потерями
Бит/(Пиксели*Кадры) : 0.303
Размер потока : 1,26 Гбайт (92%)
Библиотека кодирования : XviD 65
Аудио
Идентификатор : 1
Формат : AC-3
Формат/Информация : Audio Coding 3
Расширение режима : CM (complete main)
Параметр Endianness формата : Big
Идентификатор кодека : 2000
Продолжительность : 1 ч. 19 м.
Вид битрейта : Постоянный
Битрейт : 192 Кбит/сек
Каналы : 2 канала
Расположение каналов : Front: L R
Частота : 48,0 КГц
Частота кадров : 31,250 кадров/сек (1536 spf)
Метод сжатия : С потерями
Размер потока : 110 Мбайт (8%)
Выравнивание : Разделение по промежуткам
Продолжительность промежутка : 40 мс. (1,00 видеокадр)
Время предзагрузки промежутка : 500 мс.
Заголовок : Профессиональный (многоголосый закадровый)

Скриншоты


If your ratio falls below 0.3, you will not be able to download Torrents! More about the rating.

[erzsebet.pl].t159.torrent
Torrent: Registered   [ 2017-12-02 16:10 ]

Download .torrent

Download

14 KB

Status: checked
Completed: 16 times
Size: 1.37 GB
terms.php

#1

02-Dec-2017 16:09

[Profile]  [PM] 
Display posts:    

You cannot post new topics in this forum
You cannot reply to topics in this forum
You cannot edit your posts in this forum
You cannot delete your posts in this forum
You cannot vote in polls in this forum
You cannot attach files in this forum
You can download files in this forum
User agreement
For copyright holders
Advertise on this site

Скачайте на халяву через торрент на трекере erzsebet.pl

!ATTENTION!
The site does not give electronic versions of products, and is engaged only in a collecting and cataloguing of the references sent and published at a forum by our readers. If you are the legal owner of any submitted material and do not wish that the reference to it was in our catalogue, contact us and we shall immediately remove her. Files for an exchange on tracker are given by users of a site, and the administration does not bear the responsibility for their maintenance. The request to not fill in the files protected by copyrights, and also files of the illegal maintenance!