Исправительный срок / Честный срок / Straight Time (Улу Гросбард / Ulu Grosbard, Дастин Хоффман / Dustin Hoffman) [1978, США, драма, криминал, WEB-DLRip] AVO (Сергей Визгунов)

DL-List and Torrent activity
Size:  1.38 GB   |    Registered:  2 years 9 months   |    Completed:  16 times
Seeders:  2  
 
   
 
 

erzsebet.org ®

Longevity:
2 years 9 months
Posts:
47596

[Quote] 

Исправительный срок / Честный срок / Straight Time
Страна: США
Жанр: драма, криминал
Год выпуска: 1978
Продолжительность: 01:54:09
Перевод: Авторский (одноголосый закадровый) Сергей Визгунов
Субтитры: нет
Режиссер: Улу Гросбард / Ulu Grosbard, Дастин Хоффман / Dustin Hoffman
В ролях: Дастин Хоффман, Тереза Расселл, Гэри Бьюзи, Гарри Дин Стэнтон, Рита Таггарт, Кэти Бэйтс, Сэнди Бэрон, Джейк Бьюзи
Описание: Бывший грабитель банков Макс Дембо, отсидев шесть лет и заработав досрочное освобождение, выходит из мест заключения. Он сразу едет в Лос-Анжелес и становится на учет в офис по досрочному освобождению, где знакомится со своим инспектором. Макс узнает о всех условиях, которые ему необходимо соблюдать, чтобы не вернуться в тюрьму. Бывший заключенный находит жилье, работу через агентство по найму, знакомится с милой девушкой Женни; в общем – он хочет начать новую жизнь и не возвращаться к криминалу. Макс встречается со своим бывшим подельником Уиллом, у которого после тюремного заключения наладилась обычная жизнь. Друзья рады встрече, но жена Уилла не хочет, чтобы ее муж встречался с Максом и попал под его влияние. Но Дембо узнает, что напарник принимает наркотики. Однажды, вернувшись в отель после работы, парень видит инспектора в своей комнате, проникшего туда без разрешения. Найдя в комнате спички, инспектор отправляет Макса в окружную тюрьму Лос-Анджелеса и, таким образом, разрушает все то, что бывший зэк построил для нормальной жизни...
Сэмпл: http://multi-up.com/1172506
Качество видео: WEB-DLRip (Исходник ИСПРАВИТЕЛЬНЫЙ СРОК (MVO).1978.720p.WEB-DL.AC2.0.H.264-lord_i_74.mkv / KinoZal)
Формат видео: AVI
Видео: XviD 73, 704x400, (16:9), 23,976 fps, 1535 Кбит/с, 8 бит, 0.23 bit/pixel
Аудио: Русский (АС3, 2 ch (Front: L R), 48,0 KHz, 192 Kbps)

MediaInfo

Общее
Полное имя : D:\Видеофильмы\В и д е о\Исправительный срок (драма, криминал 1978 год).avi
Формат : AVI
Формат/Информация : Audio Video Interleave
Размер файла : 1,38 Гбайт
Продолжительность : 1 ч. 54 м.
Общий поток : 1736 Кбит/сек
Программа кодирования : VirtualDubMod 1.5.10.3 | www.virtualdub-fr.org || (build 2550/release)
Библиотека кодирования : VirtualDubMod build 2550/release
Видео
Идентификатор : 0
Формат : MPEG-4 Visual
Профиль формата : Advanced [email protected]
Параметр BVOP формата : 2
Параметр QPel формата : Нет
Параметр GMC формата : Без точки перехода
Параметр матрицы формата : Выборочная
Идентификатор кодека : XVID
Идентификатор кодека/Подсказка : XviD
Продолжительность : 1 ч. 54 м.
Битрейт : 1535 Кбит/сек
Ширина : 704 пикселя
Высота : 400 пикселей
Соотношение сторон : 16:9
Частота кадров : 23,976 (23976/1000) кадра/сек
Цветовое пространство : YUV
Субдискретизация насыщенности : 4:2:0
Битовая глубина : 8 бит
Тип развёртки : Прогрессивная
Метод сжатия : С потерями
Бит/(Пиксели*Кадры) : 0.227
Размер потока : 1,22 Гбайт (88%)
Библиотека кодирования : XviD 73
Аудио
Идентификатор : 1
Формат : AC-3
Формат/Информация : Audio Coding 3
Расширение режима : CM (complete main)
Параметр Endianness формата : Big
Идентификатор кодека : 2000
Продолжительность : 1 ч. 54 м.
Вид битрейта : Постоянный
Битрейт : 192 Кбит/сек
Каналы : 2 канала
Расположение каналов : Front: L R
Частота : 48,0 КГц
Частота кадров : 31,250 кадров/сек (1536 spf)
Метод сжатия : С потерями
Размер потока : 157 Мбайт (11%)
Выравнивание : Разделение по промежуткам
Продолжительность промежутка : 42 мс. (1,00 видеокадр)
Время предзагрузки промежутка : 500 мс.

Скриншот c названием фильма

Скриншоты

If your ratio falls below 0.3, you will not be able to download Torrents! More about the rating.

[erzsebet.pl].t160.torrent
Torrent: Registered   [ 2017-12-02 16:10 ]

Download .torrent

Download

14 KB

Status: checked
Completed: 16 times
Size: 1.38 GB
terms.php

#1

02-Dec-2017 16:09

[Profile]  [PM] 
Display posts:    

You cannot post new topics in this forum
You cannot reply to topics in this forum
You cannot edit your posts in this forum
You cannot delete your posts in this forum
You cannot vote in polls in this forum
You cannot attach files in this forum
You can download files in this forum
User agreement
For copyright holders
Advertise on this site

Скачайте на халяву через торрент на трекере erzsebet.pl

!ATTENTION!
The site does not give electronic versions of products, and is engaged only in a collecting and cataloguing of the references sent and published at a forum by our readers. If you are the legal owner of any submitted material and do not wish that the reference to it was in our catalogue, contact us and we shall immediately remove her. Files for an exchange on tracker are given by users of a site, and the administration does not bear the responsibility for their maintenance. The request to not fill in the files protected by copyrights, and also files of the illegal maintenance!