Визит инспектора / An inspector calls (Гай Гамильтон / Guy Hamilton) [1954, Великобритания, драма, детектив, BDRip] Dub

DL-List and Torrent activity
Size:  1.38 GB   |    Registered:  2 years 9 months   |    Completed:  16 times
Seeders:  5  
 
   
 
 

erzsebet.org ®

Longevity:
2 years 9 months
Posts:
47596

[Quote] 

Визит инспектора / An inspector calls
Страна: Великобритания
Жанр: драма, детектив
Год выпуска: 1954
Продолжительность: 01:20:01
Перевод: Профессиональный (дублированный) - киностудия имени Горького
Субтитры: нет
Оригинальная аудиодорожка: нет
Режиссер: Гай Гамильтон / Guy Hamilton
В ролях: В ролях: Аластер Сим, Ольга Линдо, Артур Янг, Брайан Уорт, Эйлин Мур, Брайан Форбс, Джейн Уэнхэм, Джордж Вудбридж, Барбара Эверест, Чарльз Сейнор, Олуэн Брукс, Джон Уэлш, Фрэнсис Гоуэнс, Норман Бёрд, Хелен Клеверли, Джордж Коул, Уолтер Кросс, Бренда Дункан, Ви Эндин, Мэйбл Этерингтон, Джордж Хирстл, Дженни Джонс, Пэт Нил, Билл Рэймонд, Винни Уиблин, Кэтрин Уиллмер
Роли дублировали: Алексей Кельберер, Мария Синельникова, Михаил Колесников, Артем Карапетян, Данута Столярская, Юрий Саранцев, Антонина Кончакова
Описание: Экранизация классической пьесы Дж. Пристли, признанный камерный шедевр английского послевоенного кинематографа.
В богатый дом преуспевающего и довольного собой промышленника с семейством входит старик с пронзительным взглядом - полицейский инспектор c вестью о смерти никому не известной бедной девушки. Недоумение хозяина и домочадцев вскоре сменится смятением и отчаянием.
То, что сперва может показаться старомодной и весьма условной социальной драмой, неожиданно оборачивается и до сего дня захватывающим острым взглядом на природу человеческого существа, его готовность забывать и способность вспомнить и осознать свои грехи.
Доп. информация: Видео взято из релиза - http://erzsebet.org/forum/viewtopic.php?t=4795238, аудио взято из исходника - http://erzsebet.org/forum/viewtopic.php?t=5447095.
Сэмпл: https://cloud.mail.ru/public/JrQK/nkUsWigBC
Качество видео: BDRip
Формат видео: AVI
Видео: 2207 Кбит/сек, 704*512 (1,375), 23,976 кадра/сек, XviD
Аудио: Русский, 256 Кбит/сек, 48,0 КГц, 16 бит, 2 канала, AC-3

MediaInfo

Общее
Полное имя : H:\MONAR\Видео\Художественные фильмы\Зарубежное кино\Визит инспектора (1954).avi
Формат : AVI
Формат/Информация : Audio Video Interleave
Размер файла : 1,38 Гбайт
Продолжительность : 1 ч. 20 м.
Общий поток : 2472 Кбит/сек
Видео
Идентификатор : 0
Формат : MPEG-4 Visual
Профиль формата : Advanced [email protected]
Настройки формата : BVOP2 / Custom Matrix
Параметр BVOP формата : 2
Параметр QPel формата : Нет
Параметр GMC формата : Без точки перехода
Параметр матрицы формата : Выборочная
Идентификатор кодека : XVID
Идентификатор кодека/Подсказка : XviD
Продолжительность : 1 ч. 20 м.
Битрейт : 2207 Кбит/сек
Ширина : 704 пикселя
Высота : 512 пикселей
Соотношение сторон : 1,375
Частота кадров : 23,976 (24000/1001) кадра/сек
Цветовое пространство : YUV
Субдискретизация насыщенности : 4:2:0
Битовая глубина : 8 бит
Тип развёртки : Прогрессивная
Метод сжатия : С потерями
Бит/(Пиксели*Кадры) : 0.255
Размер потока : 1,23 Гбайт (89%)
Библиотека кодирования : XviD 65
Аудио
Идентификатор : 1
Формат : AC-3
Формат/Информация : Audio Coding 3
Параметр Endianness формата : Big
Идентификатор кодека : 2000
Продолжительность : 1 ч. 20 м.
Продолжительность оригинала : 1 ч. 20 м.
Вид битрейта : Постоянный
Битрейт : 256 Кбит/сек
Каналы : 2 канала
Расположение каналов : Front: L R
Частота : 48,0 КГц
Частота кадров : 31,250 кадров/сек (1536 SPF)
Битовая глубина : 16 бит
Метод сжатия : С потерями
Размер потока : 147 Мбайт (10%)
Выравнивание : Соединение по промежуткам
Продолжительность промежутка : 42 мс. (1,00 видеокадр)
ServiceKind/String : Complete Main

Скриншот c названием фильма

Скриншоты

If your ratio falls below 0.3, you will not be able to download Torrents! More about the rating.

[erzsebet.pl].t163.torrent
Torrent: Registered   [ 2017-12-02 16:10 ]

Download .torrent

Download

28 KB

Status: checked
Completed: 16 times
Size: 1.38 GB
terms.php

#1

02-Dec-2017 16:09

[Profile]  [PM] 
Display posts:    

You cannot post new topics in this forum
You cannot reply to topics in this forum
You cannot edit your posts in this forum
You cannot delete your posts in this forum
You cannot vote in polls in this forum
You cannot attach files in this forum
You can download files in this forum
User agreement
For copyright holders
Advertise on this site

Скачайте на халяву через торрент на трекере erzsebet.pl

!ATTENTION!
The site does not give electronic versions of products, and is engaged only in a collecting and cataloguing of the references sent and published at a forum by our readers. If you are the legal owner of any submitted material and do not wish that the reference to it was in our catalogue, contact us and we shall immediately remove her. Files for an exchange on tracker are given by users of a site, and the administration does not bear the responsibility for their maintenance. The request to not fill in the files protected by copyrights, and also files of the illegal maintenance!