Наследник / L'Heritier (Филипп Лабро / Philippe Labro) [1973, Франция, Италия, детектив, боевик, триллер, драма, DVDRip-AVC] MVO

Reply to topic
DL-List and Torrent activity
Size:  2.19 GB   |    Registered:  3 years 3 months   |    Completed:  16 times

Seeder not seen: 3 years 3 months

 
   
 
 
Author Message

erzsebet.org ®

Longevity: 3 years 2 months

Posts: 47596

Post 02-Dec-2017 16:09

[Quote]

Наследник / L'Heritier Страна: Франция, Италия
Жанр: детектив, боевик, триллер, драма
Год выпуска: 1973
Продолжительность: 01:46:44
Перевод: Профессиональный (многоголосый закадровый)
Субтитры: нет
Режиссер: Филипп Лабро / Philippe Labro
В ролях: Жан-Поль Бельмондо /Jean-Paul Belmondo/, Карла Гравина /Carla Gravina/, Жан Рошфор /Jean Rochefort/, Шарль Деннер /Charles Denner/, Жан Мартен /Jean Martin/, Пьер Грассе /Pierre Grasset/, Жан Десайи, Морис Гаррель, Морин Кервин, Франсуа Шометт
Описание: Барт Кордел, слывущий в свете плейбоем и интеллигентом, после загадочной смерти отца становится владельцем крупной медиа империи. Он начинает наводить порядок и одновременно ведет расследование, так как уверен, что его отец был убит. Но далеко не всем выгодно, чтобы добытые им сведения были преданы огласке...-Доп. информация: Студия: Cinetel, Euro International Film (EIA), President Films
Rip by kohora. Исходник отсюда- - -Качество видео: DVDRip-AVC
Формат видео: MKV
Видео: x264 2770 Кбит/сек, 656x368, 25 fps
Аудио 1: Русский - AC3 160 Кбит/сек, 2 канала, 48,0 КГц

MediaInfo

Полное имя : Наследник 1973, Франция, Италия, детектив, боевик, триллер, драма.mkv
Формат : Matroska
Версия формата : Version 4 / Version 2
Размер файла : 2,19 Гбайт
Продолжительность : 1 ч. 46 м.
Общий поток : 2933 Кбит/сек
Программа кодирования : XviD4PSP 7.0.408 DAILY
Библиотека кодирования : Lavf57.71.100
Примечание : Rip by kohora
ErrorDetectionType : Per level 1
ENCODING_INFO : DVD > MKV MKV H264 192kbs / MPEG2 > X264 VBR-2P 2770kbps UMH 24 max me / AC3 > COPY Безопасное
Видео
Идентификатор : 1
Формат : AVC
Формат/Информация : Advanced Video Codec
Профиль формата : [email protected]
Настройки формата : CABAC / 16 Ref Frames
Параметр CABAC формата : Да
Параметр RefFrames формата : 16 кадров
Идентификатор кодека : V_MPEG4/ISO/AVC
Продолжительность : 1 ч. 46 м.
Битрейт : 2770 Кбит/сек
Ширина : 656 пикселей
Высота : 368 пикселей
Соотношение сторон : 16:9
Режим частоты кадров : Постоянный
Частота кадров : 25,000 кадров/сек
Цветовое пространство : YUV
Субдискретизация насыщенности : 4:2:0
Битовая глубина : 8 бит
Тип развёртки : Прогрессивная
Бит/(Пиксели*Кадры) : 0.459
Размер потока : 2,02 Гбайт (93%)
Библиотека кодирования : x264 core 152 r2851M ba24899
Настройки программы : cabac=1 / ref=16 / deblock=1:0:0 / analyse=0x3:0x133 / me=umh / subme=11 / psy=1 / psy_rd=1.00:0.00 / mixed_ref=1 / me_range=24 / chroma_me=1 / trellis=2 / 8x8dct=1 / cqm=0 / deadzone=21,11 / fast_pskip=0 / chroma_qp_offset=-2 / threads=5 / lookahead_threads=1 / sliced_threads=0 / nr=0 / decimate=1 / interlaced=0 / bluray_compat=0 / constrained_intra=0 / bframes=16 / b_pyramid=2 / b_adapt=2 / b_bias=0 / direct=3 / weightb=1 / open_gop=0 / weightp=2 / keyint=250 / keyint_min=25 / scenecut=40 / intra_refresh=0 / rc_lookahead=60 / rc=2pass / mbtree=1 / bitrate=2770 / ratetol=1.0 / qcomp=0.60 / qpmin=0 / qpmax=69 / qpstep=4 / cplxblur=20.0 / qblur=0.5 / ip_ratio=1.40 / aq=1:1.00
Default : Да
Forced : Нет
Цветовой диапазон : Full
Аудио
Идентификатор : 2
Формат : AC-3
Формат/Информация : Audio Coding 3
Параметр Endianness формата : Big
Идентификатор кодека : A_AC3
Продолжительность : 1 ч. 46 м.
Вид битрейта : Постоянный
Битрейт : 160 Кбит/сек
Каналы : 2 канала
Расположение каналов : Front: L R
Частота : 48,0 КГц
Частота кадров : 31,250 кадров/сек (1536 SPF)
Битовая глубина : 16 бит
Метод сжатия : С потерями
Размер потока : 122 Мбайт (5%)
Заголовок : Русский
Язык : Russian
ServiceKind/String : Complete Main
Default : Да
Forced : Нет

Скриншот c названием фильма

Ссылки на мои файлы Раздача-Заново скачайте торрент, перезалив торрента. 16 Октября 2017
[erzsebet.pl].t165.torrent
Torrent: Registered [ 2017-12-02 16:10 ] · 118B8BB56DF1487D1225B871814030B06AC47D6B

Download .torrent

Download

11 KB

Status: checked
Completed: 16 times
Size: 2.19 GB
terms.php
[Profile] [PM]
Display posts:    
Reply to topic

Current time is: 05-Mar 03:28

All times are UTC ± 0



You cannot post new topics in this forum
You cannot reply to topics in this forum
You cannot edit your posts in this forum
You cannot delete your posts in this forum
You cannot vote in polls in this forum
You cannot attach files in this forum
You can download files in this forum