Картошка / Patate / Friend of the Family (Робер Тома / Robert Thomas) [1964, Франция, Италия, комедия, экранизация, DVB] Original (Fre) + Sub (Rus, Eng, Fre, Deu)

DL-List and Torrent activity
Size:  2.08 GB   |    Registered:  2 years 9 months   |    Completed:  16 times
Seeders:  10  
 
   
 
 

erzsebet.org ®

Longevity:
2 years 9 months
Posts:
47596

[Quote] 

Картошка
Patate- Страна: Франция, Италия
Жанр: комедия, экранизация
Год выпуска: 1964
Продолжительность: 01:30:05Перевод: Субтитры (русский перевод О.Першиной, Éclair Media)
Субтитры: русские, английские, французские, немецкие, нидерландские
Оригинальная аудиодорожка: французский
Режиссер: Робер Тома / Robert Thomas
В ролях: Жан Маре / Jean Marais (Noël Carradine), Даниэль Дарьё / Danielle Darrieux (Edith Rollo), Анн Вернон / Anne Vernon (Véronique Carradine), Сильви Вартан / Sylvie Vartan (Alexa Rollo), Пьер Дюкс / Pierre Dux (Leon Rollo dit Patate), Юбер Дешам / Hubert Deschamps (Adrien), Даниэль Чеккальди / Daniel Ceccaldi (Michel - le barman), Робер Тома / Robert Thomas (Eugene)
Описание: по одноименной пьесе французского сценариста и драматурга Марселя Ашара / Marcel Achard (1956).
"Что за комиссия, Создатель, быть взрослой дочери отцом!" – вслед за героем бессмертной грибоедовской комедии мог бы воскликнуть изобретатель механических игрушек Леон Ролло. Но и без легкомысленной Алексы забот у Леона хватает, ведь все его попытки выгодно пристроить свои изобретения оканчиваются неудачей. Скрепя сердце, Леон соглашается на уговоры жены Эдит обратиться за помощью к своему бывшему однокашнику Ноэлю Карадину, попавшему – благодаря женитьбе на богатой наследнице – в высшие светские и финансовые круги Парижа. Взаимная неприязнь Леона и Ноэля началась еще в детстве: не кто иной, как красавчик Карадин дал недотепе Ролло обидное прозвище "Картошка", – однако наступает день, когда Леону выпадает шанс поквитаться с соперником за многолетние унижения.
Доп. информация: Hot Bird (13.0°E) TV5MONDE Europe DVB-S
Качество видео: DVB
Формат видео: MKV
Видео: MPEG Video 2, [email protected] (16:9), 25 fps, ~3041 kbps avg, 0.293 bit/pixel
Аудио: MPEG Audio 2, 2 ch, 48 kHz, 192 kbps - французский
Формат субтитров: softsub (SRT)

Пример субтитров

1
00:00:35,681 --> 00:00:37,681
КАРТОШКА
2
00:01:38,080 --> 00:01:39,455
Эй!
3
00:02:04,316 --> 00:02:06,191
Скорее!
4
00:02:08,445 --> 00:02:12,079
Эта Алекса!
Что мальчики в ней находят?
5
00:02:12,079 --> 00:02:14,080
Она кажется доступной.
6
00:02:14,080 --> 00:02:17,705
Мы тоже так могли бы.
7
00:02:19,883 --> 00:02:22,508
Почему стоим?
8
00:02:24,116 --> 00:02:25,278
Кортеж.
9
00:02:25,278 --> 00:02:26,838
Чернокожий король?
10
00:02:26,838 --> 00:02:29,213
Нет. Белые.
11
00:02:41,566 --> 00:02:43,200
Вот это да!
12
00:02:43,200 --> 00:02:45,603
Ноэль Каррадин,
друг детства!
13
00:02:45,603 --> 00:02:46,639
Ну да...
14
00:02:46,639 --> 00:02:51,264
А генерал - мой младший брат.
15
00:02:53,044 --> 00:02:55,247
Альбер, займись кока-колой,
16
00:02:55,247 --> 00:02:57,797
ты сэндвичами,
а ты пластинками.
17
00:02:57,797 --> 00:02:59,194
-Ладно.
-Да!
18
00:02:59,194 --> 00:03:01,478
-Сыграем в футбол?
-Потом.
19
00:03:01,478 --> 00:03:03,327
Алекса, ты потрясающая.
20
00:03:03,327 --> 00:03:06,795
Нет. Я организованная.

MediaInfo

General
Unique ID : 176642629601509121554632831037153316442 (0x84E4220B0251E4DEAE4185E131658E5A)
Complete name : [apreder]Patate(1964)DVB.mkv
Format : Matroska
Format version : Version 2
File size : 2.08 GiB
Duration : 1 h 30 min
Overall bit rate mode : Variable
Overall bit rate : 3 298 kb/s
Movie name : Patate
Released date : 1964-10-21
Encoded date : UTC 2017-10-15 13:11:39
Writing application : mkvmerge v17.0.0 ('Be Ur Friend') 64-bit
Writing library : libebml v1.3.5 + libmatroska v1.4.8
Cover : Yes
Attachments : cover.jpg / small_cover.jpg
ACTOR : Jean Marais, Danielle Darrieux, Anne Vernon
DIRECTOR : Robert Thomas
GENRE : Comedy
IMDB : tt0145335
KEYWORDS : erzsebet.org
LAW_RATING : 16+
Video
ID : 1
Format : MPEG Video
Format version : Version 2
Format profile : [email protected]
Format settings : CustomMatrix / BVOP
Format settings, BVOP : Yes
Format settings, Matrix : Custom
Format settings, GOP : Variable
Format settings, picture structure : Frame
Codec ID : V_MPEG2
Codec ID/Info : MPEG 1 or 2 Video
Duration : 1 h 30 min
Bit rate mode : Variable
Bit rate : 3 041 kb/s
Maximum bit rate : 15.0 Mb/s
Width : 720 pixels
Height : 576 pixels
Display aspect ratio : 16:9
Active Format Description : Letterbox 16:9 image
Frame rate mode : Constant
Frame rate : 25.000 FPS
Standard : PAL
Color space : YUV
Chroma subsampling : 4:2:0
Bit depth : 8 bits
Scan type : Interlaced
Scan order : Top Field First
Compression mode : Lossy
Bits/(Pixel*Frame) : 0.293
Stream size : 1.91 GiB (92%)
Default : Yes
Forced : No
Audio
ID : 2
Format : MPEG Audio
Format version : Version 1
Format profile : Layer 2
Format settings : Joint stereo / Intensity Stereo + MS Stereo
Mode : Joint stereo
Mode extension : Intensity Stereo + MS Stereo
Codec ID : A_MPEG/L2
Codec ID/Hint : MP2
Duration : 1 h 30 min
Bit rate mode : Constant
Bit rate : 192 kb/s
Channel(s) : 2 channels
Sampling rate : 48.0 kHz
Compression mode : Lossy
Stream size : 124 MiB (6%)
Language : French
Default : Yes
Forced : No
Text #1
ID : 3
Format : UTF-8
Codec ID : S_TEXT/UTF8
Codec ID/Info : UTF-8 Plain Text
Language : Russian
Default : No
Forced : No
Text #2
ID : 4
Format : UTF-8
Codec ID : S_TEXT/UTF8
Codec ID/Info : UTF-8 Plain Text
Language : English
Default : No
Forced : No
Text #3
ID : 5
Format : UTF-8
Codec ID : S_TEXT/UTF8
Codec ID/Info : UTF-8 Plain Text
Language : French
Default : No
Forced : No
Text #4
ID : 6
Format : UTF-8
Codec ID : S_TEXT/UTF8
Codec ID/Info : UTF-8 Plain Text
Language : German
Default : No
Forced : No
Text #5
ID : 7
Format : UTF-8
Codec ID : S_TEXT/UTF8
Codec ID/Info : UTF-8 Plain Text
Language : Dutch
Default : No
Forced : No

Скриншот c названием фильма

Скриншоты


Резервные скриншоты


- [3'908]

If your ratio falls below 0.3, you will not be able to download Torrents! More about the rating.

[erzsebet.pl].t167.torrent
Torrent: Registered   [ 2017-12-02 16:10 ]

Download .torrent

Download

21 KB

Status: checked
Completed: 16 times
Size: 2.08 GB
terms.php

#1

02-Dec-2017 16:09

[Profile]  [PM] 
Display posts:    

You cannot post new topics in this forum
You cannot reply to topics in this forum
You cannot edit your posts in this forum
You cannot delete your posts in this forum
You cannot vote in polls in this forum
You cannot attach files in this forum
You can download files in this forum
User agreement
For copyright holders
Advertise on this site

Скачайте на халяву через торрент на трекере erzsebet.pl

!ATTENTION!
The site does not give electronic versions of products, and is engaged only in a collecting and cataloguing of the references sent and published at a forum by our readers. If you are the legal owner of any submitted material and do not wish that the reference to it was in our catalogue, contact us and we shall immediately remove her. Files for an exchange on tracker are given by users of a site, and the administration does not bear the responsibility for their maintenance. The request to not fill in the files protected by copyrights, and also files of the illegal maintenance!