Вор / Il ladrone / Le Larron (Паскуале Феста Кампаниле / Pasquale Festa Campanile) [1980, Италия, Франция, комедия, приключения, DVDRip] AVO (Николай Живаго)

DL-List and Torrent activity
Size:  1.45 GB   |    Registered:  2 years 9 months   |    Completed:  16 times
Seeders:  7  
 
   
 
 

erzsebet.org ®

Longevity:
2 years 9 months
Posts:
47596

[Quote] 

Вор / Il ladrone / Le Larron
Страна: Италия, Франция
Жанр: комедия, приключения
Год выпуска: 1980
Продолжительность: 01:46:17
Перевод: Авторский (одноголосый закадровый) Николай Живаго
Субтитры: нет
Режиссер: Паскуале Феста Кампаниле / Pasquale Festa Campanile
В ролях: Энрико Монтезано, Эдвидж Фенек, Бернадетт Лафон, Сара Франкетти, Даниэле Варгас, Энцо Робутти, Клаудио Кассинелли, Сузанна Мартинкова, Анна Орсо
Описание: Галилеянин, сын проститутки, он промышляет кражами и мошенничеством. Калеб овладел своим ремеслом в таком совершенстве, что многие принимают его за мага. Став свидетелем чудес, которые совершает Иисус, Калеб усматривает в них лишь ловкие манипуляции, а в Христе видит опасного конкурента. Однако ему так и не удаётся разоблачить соперника....
Доп. информация: Дорога синхронизирована Нордер при помощи Sony Vegas . За предоставленную дорожку благодарим - AMIRKHAN NOIR из Баку
Сэмпл: http://multi-up.com/1172221
Качество видео: DVDRip (Исходник - DVD Video)
Формат видео: AVI
Видео: XviD 73, 640x352, (16:9), 25,000 fps, 1755 Кбит/с, 8 бит, 0.31 bit/pixel
Аудио: Русский (АС3, 2 ch (Front: L R), 48,0 KHz, 192 Kbps)

MediaInfo

Общее
Полное имя : D:\Видеофильмы\В и д е о\Вор (комедия, приключения 1980год).avi
Формат : AVI
Формат/Информация : Audio Video Interleave
Размер файла : 1,45 Гбайт
Продолжительность : 1 ч. 46 м.
Общий поток : 1957 Кбит/сек
Программа кодирования : VirtualDubMod 1.5.10.3 | www.virtualdub-fr.org || (build 2550/release)
Библиотека кодирования : VirtualDubMod build 2550/release
Видео
Идентификатор : 0
Формат : MPEG-4 Visual
Профиль формата : Advanced [email protected]
Параметр BVOP формата : 2
Параметр QPel формата : Нет
Параметр GMC формата : Без точки перехода
Параметр матрицы формата : Выборочная
Идентификатор кодека : XVID
Идентификатор кодека/Подсказка : XviD
Продолжительность : 1 ч. 46 м.
Битрейт : 1755 Кбит/сек
Ширина : 640 пикселей
Высота : 352 пикселя
Соотношение сторон : 16:9
Частота кадров : 25,000 кадров/сек
Цветовое пространство : YUV
Субдискретизация насыщенности : 4:2:0
Битовая глубина : 8 бит
Тип развёртки : Прогрессивная
Метод сжатия : С потерями
Бит/(Пиксели*Кадры) : 0.312
Размер потока : 1,30 Гбайт (90%)
Библиотека кодирования : XviD 73
Аудио
Идентификатор : 1
Формат : AC-3
Формат/Информация : Audio Coding 3
Расширение режима : CM (complete main)
Параметр Endianness формата : Big
Идентификатор кодека : 2000
Продолжительность : 1 ч. 46 м.
Вид битрейта : Постоянный
Битрейт : 192 Кбит/сек
Каналы : 2 канала
Расположение каналов : Front: L R
Частота : 48,0 КГц
Частота кадров : 31,250 кадров/сек (1536 spf)
Метод сжатия : С потерями
Размер потока : 146 Мбайт (10%)
Выравнивание : Разделение по промежуткам
Продолжительность промежутка : 40 мс. (1,00 видеокадр)
Время предзагрузки промежутка : 500 мс.

Скриншот c названием фильма

Скриншоты

If your ratio falls below 0.3, you will not be able to download Torrents! More about the rating.

[erzsebet.pl].t168.torrent
Torrent: Registered   [ 2017-12-02 16:10 ]

Download .torrent

Download

15 KB

Status: checked
Completed: 16 times
Size: 1.45 GB
terms.php

#1

02-Dec-2017 16:09

[Profile]  [PM] 
Display posts:    

You cannot post new topics in this forum
You cannot reply to topics in this forum
You cannot edit your posts in this forum
You cannot delete your posts in this forum
You cannot vote in polls in this forum
You cannot attach files in this forum
You can download files in this forum
User agreement
For copyright holders
Advertise on this site

Скачайте на халяву через торрент на трекере erzsebet.pl

!ATTENTION!
The site does not give electronic versions of products, and is engaged only in a collecting and cataloguing of the references sent and published at a forum by our readers. If you are the legal owner of any submitted material and do not wish that the reference to it was in our catalogue, contact us and we shall immediately remove her. Files for an exchange on tracker are given by users of a site, and the administration does not bear the responsibility for their maintenance. The request to not fill in the files protected by copyrights, and also files of the illegal maintenance!