Дождись темноты / Wait Until Dark (Теренс Янг / Terence Young) [1967, США, триллер, VHSRip-AVC] [Fullscreen] Dub (Мост-Видео)

Reply to topic
DL-List and Torrent activity
Size:  2.31 GB   |    Registered:  3 years 3 months   |    Completed:  16 times

Seeder not seen: 3 years 3 months

 
   
 
 
Author Message

erzsebet.org ®

Longevity: 3 years 2 months

Posts: 47596

Post 02-Dec-2017 16:09

[Quote]

Дождись темноты / Wait Until Dark / Fullscreen
Страна: США
Жанр: триллер
Год выпуска: 1967
Продолжительность: 01:43:23
Перевод: Профессиональный (дублированный) Мост-Видео
Субтитры: нет
Оригинальная аудиодорожка: нет
Режиссер: Теренс Янг / Terence Young
В ролях: Одри Хепберн, Алан Аркин, Ричард Кренна, Ефрем Цимбалист мл., Джек Уэстон, Саманта Джонс, Джули Эрро, Мел Феррер (озвучка, в титрах не указан)...
Описание: В дом Сьюзи, недавно ослепшей в результате автокатастрофы, попадает тряпичная кукла, в которую наркоторговцы зашили крупную партию героина. Содержимое куклы очень хотят заполучить бандиты во главе с убийцей-психопатом Роутом. Слепая девушка беззащитна, лишь в темноте их шансы могут относительно уравняться, поэтому единственная надежда Сьюзи — дождаться темноты…
Номинации:
Оскар, 1968 год
Номинация:
Лучшая женская роль (Одри Хепберн)
Золотой глобус, 1968 год
Номинации:
Лучшая женская роль (драма) (Одри Хепберн)
Лучшая мужская роль второго плана (Ефрем Цимбалист мл.)
Доп. информация:
Оцифровка лицензионной VHS из собственной коллекции.
Fullscreen!
Сэмпл: http://sendfile.su/1369127
Качество видео: VHSRip-AVC
Формат видео: MP4
Видео: AVC, 720х576, 5:4, 25,000 кадров/сек, 3000 Кбит/сек
Аудио: AAC, 64,0 КГц, 192 Кбит/сек, 2.0 (псевдостерео)

MediaInfo

General
Complete name : K:\torrents\Wait Until Dark\Wait Until Dark.mp4
Format : MPEG-4
Format profile : Base Media
Codec ID : isom (isom/iso2/avc1/mp41)
File size : 2.31 GiB
Duration : 1 h 43 min
Overall bit rate : 3 196 kb/s
Writing application : Lavf57.25.100
Video
ID : 1
Format : AVC
Format/Info : Advanced Video Codec
Format profile : [email protected]
Format settings : 1 Ref Frames
Format settings, CABAC : No
Format settings, RefFrames : 1 frame
Format settings, GOP : M=1, N=50
Codec ID : avc1
Codec ID/Info : Advanced Video Coding
Duration : 1 h 43 min
Bit rate : 3 000 kb/s
Width : 720 pixels
Height : 576 pixels
Display aspect ratio : 5:4
Frame rate mode : Constant
Frame rate : 25.000 FPS
Standard : PAL
Color space : YUV
Chroma subsampling : 4:2:0
Bit depth : 8 bits
Scan type : Progressive
Bits/(Pixel*Frame) : 0.289
Stream size : 2.17 GiB (94%)
Audio
ID : 2
Format : AAC
Format/Info : Advanced Audio Codec
Format profile : LTP
Codec ID : mp4a-40-4
Duration : 1 h 43 min
Bit rate mode : Constant
Bit rate : 192 kb/s
Channel(s) : 2 channels
Channel(s)_Original : 3 channels
Channel positions : Front: L C R
Sampling rate : 64.0 kHz
Frame rate : 62.500 FPS (1024 SPF)
Compression mode : Lossy
Stream size : 140 MiB (6%)
Default : Yes
Alternate group : 1

Скриншот c названием фильма

[erzsebet.pl].t171.torrent
Torrent: Registered [ 2017-12-02 16:10 ] · B8C82C71B22B117811066C4E3EEC6CEA5DDE0341

Download .torrent

Download

12 KB

Status: checked
Completed: 16 times
Size: 2.31 GB
terms.php
[Profile] [PM]
Display posts:    
Reply to topic

Current time is: 07-Mar 21:49

All times are UTC ± 0



You cannot post new topics in this forum
You cannot reply to topics in this forum
You cannot edit your posts in this forum
You cannot delete your posts in this forum
You cannot vote in polls in this forum
You cannot attach files in this forum
You can download files in this forum