Первые Люди на Луне / First Men in the Moon (Нэйтан Юран / Nathan Juran) [1964, Великобритания, фантастика, приключения, BDRip] MVO + Original Eng

Reply to topic
DL-List and Torrent activity
Size:  2.13 GB   |    Registered:  3 years 3 months   |    Completed:  16 times

Seeder not seen: 3 years 3 months

 
   
 
 
Author Message

erzsebet.org ®

Longevity: 3 years 2 months

Posts: 47596

Post 02-Dec-2017 16:09

[Quote]

Первые Люди на Луне / First Men in the Moon
Страна: Великобритания
Жанр: фантастика, приключения
Год выпуска: 1964
Продолжительность: 01:42:03
Перевод: Профессиональный (многоголосый закадровый)
Субтитры: нет
Оригинальная аудиодорожка: английский
Режиссер: Нэйтан Юран / Nathan Juran
В ролях: Эдвард Джадд, Марта Хайер, Лайонел Джеффрис, Майлз Маллесон, Норман Бёрд, Глэдис Хенсон, Хью МакДермотт, Бетти МакДауэлл, Пол Карпентер, Эрик Читти
Описание: Фантастический фильм по роману Герберта Уэллса, снятый еще до первого полета человека на Луну. Космический корабль с астронавтами на борту приземляется на Луне. Земляне считают, что они стали первооткрывателями. Но каково же их удивление, когда они видят на поверхности планеты старый английский флаг и документ, гласящий, что планета принадлежит королеве Виктории.
Доп. информация:За исходник взят http://erzsebet.org/forum/viewtopic.php?t=4974607
Сэмпл: http://sendfile.su/1369003
Качество видео: BDRip
Формат видео: AVI
Видео: Xvid 720x304 23.976fps 2236kbps
Аудио: Dolby AC3 48000Hz stereo 256kbps
Аудио 2: Dolby AC3 48000Hz stereo 448kbps

MediaInfo

Общее
Полное имя : E:\films\1964\1964 First Men in the Moon BDRip_eqm_v3hr_matrix_Lanczos4_218.avi
Формат : AVI
Формат/Информация : Audio Video Interleave
Профиль формата : OpenDML
Размер файла : 2,13 Гбайт
Продолжительность : 1 ч. 43 м.
Общий поток : 2958 Кбит/сек
Программа кодирования : VirtualDubMod 1.5.10.2 (build 2540/release)
Библиотека кодирования : VirtualDubMod build 2540/release
Видео
Идентификатор : 0
Формат : MPEG-4 Visual
Профиль формата : Advanced [email protected]
Параметр BVOP формата : 1
Параметр QPel формата : Нет
Параметр GMC формата : Без точки перехода
Параметр матрицы формата : Выборочная
Идентификатор кодека : XVID
Идентификатор кодека/Подсказка : XviD
Продолжительность : 1 ч. 43 м.
Битрейт : 2236 Кбит/сек
Ширина : 720 пикселей
Высота : 304 пикселя
Соотношение сторон : 2,35:1
Частота кадров : 23,976 (24000/1001) кадра/сек
Цветовое пространство : YUV
Субдискретизация насыщенности : 4:2:0
Битовая глубина : 8 бит
Тип развёртки : Прогрессивная
Метод сжатия : С потерями
Бит/(Пиксели*Кадры) : 0.426
Размер потока : 1,61 Гбайт (76%)
Библиотека кодирования : XviD 67
Аудио #1
Идентификатор : 1
Формат : AC-3
Формат/Информация : Audio Coding 3
Параметр Endianness формата : Big
Идентификатор кодека : 2000
Продолжительность : 1 ч. 43 м.
Вид битрейта : Постоянный
Битрейт : 256 Кбит/сек
Каналы : 2 канала
Расположение каналов : Front: L R
Частота : 48,0 КГц
Частота кадров : 31,250 кадров/сек (1536 SPF)
Битовая глубина : 16 бит
Метод сжатия : С потерями
Размер потока : 189 Мбайт (9%)
Выравнивание : Разделение по промежуткам
Продолжительность промежутка : 42 мс. (1,00 видеокадр)
Время предзагрузки промежутка : 500 мс.
ServiceKind/String : Complete Main
Аудио #2
Идентификатор : 2
Формат : AC-3
Формат/Информация : Audio Coding 3
Параметр Endianness формата : Big
Идентификатор кодека : 2000
Продолжительность : 1 ч. 43 м.
Вид битрейта : Постоянный
Битрейт : 448 Кбит/сек
Каналы : 2 канала
Расположение каналов : Front: L R
Частота : 48,0 КГц
Частота кадров : 31,250 кадров/сек (1536 SPF)
Битовая глубина : 16 бит
Метод сжатия : С потерями
Размер потока : 330 Мбайт (15%)
Выравнивание : Разделение по промежуткам
Продолжительность промежутка : 42 мс. (1,00 видеокадр)
Время предзагрузки промежутка : 500 мс.
ServiceKind/String : Complete Main

Скриншот c названием фильма

Скриншоты

[erzsebet.pl].t173.torrent
Torrent: Registered [ 2017-12-02 16:10 ] · 00E8DC9621BF8B08900A4C2CCA170894DC6066A4

Download .torrent

Download

11 KB

Status: checked
Completed: 16 times
Size: 2.13 GB
terms.php
[Profile] [PM]
Display posts:    
Reply to topic

Current time is: 03-Mar 18:06

All times are UTC ± 0



You cannot post new topics in this forum
You cannot reply to topics in this forum
You cannot edit your posts in this forum
You cannot delete your posts in this forum
You cannot vote in polls in this forum
You cannot attach files in this forum
You can download files in this forum