Однажды в Америке / Once Upon a Time in America (Серджио Леоне / Sergio Leone) [1984, Италия, США, драма, криминал, BDRip] DVO (ТВЦ) + Original Eng + subs (Rus, Eng SDH)

DL-List and Torrent activity
Size:  4.36 GB   |    Registered:  2 years 9 months   |    Completed:  16 times
Seeders:  5  
 
   
 
 

erzsebet.org ®

Longevity:
2 years 9 months
Posts:
47596

[Quote] 

Однажды в Америке / Once Upon a Time in America [Extended edition]- Год выпуска: 1984
Выпущено: Италия, США
Жанр: драма, криминал
Продолжительность: 04:11:00
Перевод: Профессиональный (двухголосый, закадровый) ТВЦ [со вставками Ю.Сербина]
+ Оригинальная звуковая дорожка
Субтитры: Русские, английские SDH (внешние srt*)-Режиссер: Серджио Леоне / Sergio Leone
В ролях: Роберт Де Ниро, Джеймс Вудс, Элизабет МакГоверн, Джо Пеши, Берт Янг, Тьюзди Уэлд, Трит Уильямс, Дэнни Айелло, Ричард Брайт, Джеймс Хейден
О фильме: В бурные двадцатые годы, когда Америка веселилась под звуки джаза и каждый бродяга мечтал стать миллионером, в трущобах Нью-Йорка встретились несколько отчаянных парней. Убирая с дороги конкурентов, безжалостно карая предателей и нагло проворачивая хитроумные аферы, они стали королями преступного мира золотой эры «сухого закона». Они поклялись отдать жизнь друг за друга, зная, что самое главное для них — это дружба, долг и справедливость — не утопить в реках крови и бездонном океане денег. Спустя много лет судьба жестоко обошлась с легендарными гангстерами, заставив их исполнить свою клятву. Это случилось однажды в Америке…
Релиз:
Автор: sociolog_melvas
Качество: BDRip (источник: tink45 / Blu-ray / 1080p)
Формат: AVI
Видео: 704x384 (1.83:1), 24 fps, XviD build 65 ~1839 kbps avg, 0.28 bit/pixel
Аудио #1: 48 kHz, AC3 Dolby Digital, 2/0 (L,R), ~192.00 kbps avg rus
Аудио #2: 48 kHz, AC3 Dolby Digital, 3/2 (L,C,R,l,r) + LFE ch, ~448.00 kbps avg eng
Размер: 4464.39 Mb (1 DVD-R)
Скачать: Семпл-

Кадры из фильма

-

Mi

Формат : AVI
Формат/Информация : Audio Video Interleave
Профиль формата : OpenDML
Размер файла : 4,36 Гбайт
Продолжительность : 4 ч. 10 м.
Общий поток : 2487 Кбит/сек
Название фильма : Однажды в Америке / Once Upon a Time in America [Extended edition] (1984) BDRip
Режиссёр : sociolog_melvas
Жанр : драма, криминал
Программа кодирования : VirtualDubMod 1.5.10.2 (build 2540/release)
Библиотека кодирования : VirtualDubMod build 2540/release
Правообладатель : HQCLUB
Примечание : 10.10.2017
Видео
Идентификатор : 0
Формат : MPEG-4 Visual
Профиль формата : Advanced [email protected]
Параметр BVOP формата : 1
Параметр QPel формата : Нет
Параметр GMC формата : Без точки перехода
Параметр матрицы формата : Выборочная
Идентификатор кодека : XVID
Идентификатор кодека/Подсказка : XviD
Продолжительность : 4 ч. 10 м.
Битрейт : 1833 Кбит/сек
Ширина : 704 пикселя
Высота : 384 пикселя
Соотношение сторон : 1,85:1
Частота кадров : 24,000 кадра/сек
Цветовое пространство : YUV
Субдискретизация насыщенности : 4:2:0
Битовая глубина : 8 бит
Тип развёртки : Прогрессивная
Метод сжатия : С потерями
Бит/(Пиксели*Кадры) : 0.283
Размер потока : 3,21 Гбайт (74%)
Библиотека кодирования : XviD 65
Аудио #1
Идентификатор : 1
Формат : AC-3
Формат/Информация : Audio Coding 3
Расширение режима : CM (complete main)
Параметр Endianness формата : Big
Идентификатор кодека : 2000
Продолжительность : 4 ч. 10 м.
Вид битрейта : Постоянный
Битрейт : 192 Кбит/сек
Каналы : 2 канала
Расположение каналов : Front: L R
Частота : 48,0 КГц
Битовая глубина : 16 бит
Метод сжатия : С потерями
Размер потока : 345 Мбайт (8%)
Выравнивание : Разделение по промежуткам
Продолжительность промежутка : 42 мс. (1,00 видеокадр)
Время предзагрузки промежутка : 500 мс.
Аудио #2
Идентификатор : 2
Формат : AC-3
Формат/Информация : Audio Coding 3
Расширение режима : CM (complete main)
Параметр Endianness формата : Big
Идентификатор кодека : 2000
Продолжительность : 4 ч. 10 м.
Вид битрейта : Постоянный
Битрейт : 448 Кбит/сек
Каналы : 6 каналов
Расположение каналов : Front: L C R, Side: L R, LFE
Частота : 48,0 КГц
Битовая глубина : 16 бит
Метод сжатия : С потерями
Размер потока : 804 Мбайт (18%)
Выравнивание : Разделение по промежуткам
Продолжительность промежутка : 42 мс. (1,00 видеокадр)
Время предзагрузки промежутка : 500 мс.
-

If your ratio falls below 0.3, you will not be able to download Torrents! More about the rating.

[erzsebet.pl].t175.torrent
Torrent: Registered   [ 2017-12-02 16:10 ]

Download .torrent

Download

12 KB

Status: checked
Completed: 16 times
Size: 4.36 GB
terms.php

#1

02-Dec-2017 16:09

[Profile]  [PM] 
Display posts:    

You cannot post new topics in this forum
You cannot reply to topics in this forum
You cannot edit your posts in this forum
You cannot delete your posts in this forum
You cannot vote in polls in this forum
You cannot attach files in this forum
You can download files in this forum
User agreement
For copyright holders
Advertise on this site

Скачайте на халяву через торрент на трекере erzsebet.pl

!ATTENTION!
The site does not give electronic versions of products, and is engaged only in a collecting and cataloguing of the references sent and published at a forum by our readers. If you are the legal owner of any submitted material and do not wish that the reference to it was in our catalogue, contact us and we shall immediately remove her. Files for an exchange on tracker are given by users of a site, and the administration does not bear the responsibility for their maintenance. The request to not fill in the files protected by copyrights, and also files of the illegal maintenance!